<?xml version="1.0" standalone="no"?>
<!DOCTYPE svg PUBLIC "-//W3C//DTD SVG 1.1//EN" "http://www.w3.org/Graphics/SVG/1.1/DTD/svg11.dtd" >
<svg xmlns="http://www.w3.org/2000/svg">
<metadata>Generated by IcoMoon</metadata>
<defs>
<font id="icomoon" horiz-adv-x="1024">
<font-face units-per-em="1024" ascent="960" descent="-64" />
<missing-glyph horiz-adv-x="1024" />
<glyph unicode="&#x20;" horiz-adv-x="512" d="" />
<glyph unicode="&#xe900;" glyph-name="api-logo" horiz-adv-x="2348" d="M647.376 960l398.608-1024h-218.106l-89.094 238.355h-436.791l-89.094-238.355h-212.899l398.608 1024h248.768zM520.678 758.093l-148.682-395.715h296.208l-147.525 395.715zM1596.167 310.888h-215.214v-374.31h-204.221v1023.421h417.699c120.334 0 212.899-28.927 277.695-86.78s97.193-137.69 97.193-238.355-32.398-178.766-97.193-237.198c-64.795-57.853-156.782-86.78-275.959-86.78zM1591.539 771.977h-210.007v-274.802h210.007c112.814 0 168.931 45.704 168.931 137.69s-56.118 137.69-168.931 137.69zM2347.679 960v-1024h-204.221v1024h204.221z" />
<glyph unicode="&#xe901;" glyph-name="cholesterol-outline" horiz-adv-x="928" d="M742.396 265.016c0-13.978-11.331-25.309-25.309-25.309s-25.309 11.331-25.309 25.309c0 13.978 11.331 25.309 25.309 25.309s25.309-11.331 25.309-25.309zM556.797 113.163c0-13.978-11.331-25.309-25.309-25.309s-25.309 11.331-25.309 25.309c0 13.978 11.331 25.309 25.309 25.309s25.309-11.331 25.309-25.309zM438.688 146.908c0-13.978-11.331-25.309-25.309-25.309s-25.309 11.331-25.309 25.309c0 13.978 11.331 25.309 25.309 25.309s25.309-11.331 25.309-25.309zM320.58 146.908c0-13.978-11.331-25.309-25.309-25.309s-25.309 11.331-25.309 25.309c0 13.978 11.331 25.309 25.309 25.309s25.309-11.331 25.309-25.309zM253.089 231.271c0-13.978-11.331-25.309-25.309-25.309s-25.309 11.331-25.309 25.309c0 13.978 11.331 25.309 25.309 25.309s25.309-11.331 25.309-25.309zM219.344 433.743c0-13.978-11.331-25.309-25.309-25.309s-25.309 11.331-25.309 25.309c0 13.978 11.331 25.309 25.309 25.309s25.309-11.331 25.309-25.309zM253.089 568.724c0-13.978-11.331-25.309-25.309-25.309s-25.309 11.331-25.309 25.309c0 13.978 11.331 25.309 25.309 25.309s25.309-11.331 25.309-25.309zM371.198 653.087c0-13.978-11.331-25.309-25.309-25.309s-25.309 11.331-25.309 25.309c0 13.978 11.331 25.309 25.309 25.309s25.309-11.331 25.309-25.309zM923.608 672.828l-156.409 270.806c-5.905 10.292-16.535 16.366-28.346 16.366v0c-11.811 0-22.441-6.074-28.177-16.366l-76.77-132.956c-54.836 23.453-115.071 36.445-178.344 36.445-251.233 0-455.561-204.496-455.561-455.561s204.328-455.561 455.561-455.561 455.561 204.328 455.561 455.561c0 84.869-23.453 164.339-63.947 232.336h48.087c11.811 0 22.441 6.074 28.346 16.366s5.905 22.441 0 32.733zM877.377 391.561c0-232.674-189.142-421.816-421.816-421.816s-421.816 189.142-421.816 421.816 189.142 421.816 421.816 421.816c57.198 0 111.528-11.473 161.302-32.058l-25.646-44.375c-42.013 16.535-87.906 25.815-135.656 25.815-204.665 0-371.198-166.533-371.198-371.198s166.533-371.198 371.198-371.198 371.198 166.533 371.198 371.198c0 20.078-1.687 39.651-4.724 58.885 1.519 2.531 2.7 5.399 2.7 8.605v136.162c33.408-60.404 52.643-129.919 52.643-203.653zM554.435 640.264c5.905-10.292 16.535-16.366 28.346-16.366h70.528v-164.846c0-9.28 7.593-16.873 16.873-16.873h118.783c2.531-16.535 4.218-33.408 4.218-50.618 0-6.412-0.675-12.486-1.012-18.897-2.362 1.181-4.724 2.025-7.424 2.025-79.133 0-143.417-64.285-143.417-143.417 0-8.436 0.844-17.041 2.362-25.309-15.86 0.337-31.889-2.7-46.568-8.605-26.827 36.951-70.021 59.223-116.084 59.223-42.688 0-83.182-19.404-110.178-51.799-19.572 19.741-45.219 32.058-73.227 34.42-8.436 27.502-25.14 51.968-47.581 70.021 33.070 21.26 53.824 58.042 53.824 99.211 0 25.815-8.436 50.618-23.959 71.034 30.033 19.404 50.449 50.787 56.017 86.219 11.473-3.543 23.284-5.399 35.264-5.399 65.128 0 118.108 52.98 118.108 118.108 0 17.21-3.881 34.083-10.967 49.437 33.408-2.193 65.635-9.449 95.668-20.753l-19.741-34.083c-5.905-10.292-5.905-22.441 0-32.733zM303.707 585.596c0-37.795-22.609-71.371-57.536-85.882-5.399-2.193-9.28-7.087-10.292-12.823s1.181-11.642 5.399-15.523c18.222-16.029 28.515-39.145 28.515-63.104 0-36.951-24.634-70.021-59.898-80.82-6.749-2.025-11.473-7.93-11.98-14.848s3.206-13.498 9.449-16.535c30.877-14.848 53.486-43.7 60.235-76.939 1.519-7.93 8.436-13.498 16.535-13.498h2.531c28.515 0 55.005-14.173 70.696-38.301 3.206-4.893 8.099-7.761 14.51-7.593 5.905 0 11.136 3.375 14.173 8.436 19.572 33.577 55.848 54.499 94.655 54.499s75.758-21.26 95.33-55.511c2.193-3.881 5.905-6.749 10.292-7.93 1.519-0.337 2.868-0.675 4.387-0.675 2.868 0 5.737 0.675 8.436 2.193 18.897 10.798 40.326 14.342 63.104 8.436 6.074-1.519 12.654 0.337 16.873 5.062s5.399 11.473 3.206 17.379c-4.893 12.823-7.424 25.984-7.424 39.482 0 60.404 49.268 109.672 109.672 109.672 1.519 0 2.868 0.506 4.387 0.844-24.128-162.483-164.171-287.678-333.403-287.678-186.105 0-337.453 151.348-337.453 337.453s143.417 329.016 322.605 336.778c0.337-1.687 0.844-3.543 2.025-5.062 8.436-13.329 12.823-28.852 12.823-44.712 0-46.568-37.795-84.363-84.363-84.363-14.848 0-29.527 4.049-42.35 11.473-5.399 3.037-11.98 3.037-17.21 0-5.231-3.206-8.436-9.111-8.099-15.185v-4.556zM824.903 657.642h-17.041c-7.593 0-13.836-5.231-15.86-12.148-0.506-1.519-1.012-3.037-1.012-4.724v-164.846h-104.104v164.846c0 9.28-7.593 16.873-16.873 16.873h-85.544l20.585 35.77 133.8 231.662 154.385-267.431h-68.503z" />
<glyph unicode="&#xe902;" glyph-name="patient-arrow" horiz-adv-x="1091" d="M1085.88 664.472h0.213c-4.694 4.268-10.242 7.255-16.43 8.535-10.669 1.707-21.124-3.627-25.605-13.443-8.108-17.71-16.217-35.421-24.325-52.918l-14.51-31.58-19.844 53.558c-11.309 30.94-25.819 60.599-43.102 88.552-99.221 163.021-281.659 256.267-471.778 241.33-48.437-2.987-96.233-13.443-141.683-30.94-5.548-2.134-10.882-4.268-16.43-6.615-25.605-10.882-50.144-23.898-73.615-38.835l-10.669-7.041c-43.742-29.233-82.791-64.867-115.651-106.049l-7.041-8.748s-5.761-7.468-5.761-7.468v0s-3.414-5.121-3.414-5.121c-165.154-230.021-112.45-550.301 117.571-715.456 24.538-17.497 50.357-32.86 77.67-45.876 241.757-115.651 531.951-25.605 665.739 206.763 5.975 10.456 11.949 21.551 17.284 32.86 3.414 7.041 3.201 15.15-0.64 21.978-6.401 11.522-21.124 15.577-32.433 9.175-4.268-2.347-7.682-5.975-9.815-10.456-4.908-10.242-10.242-20.271-15.79-29.873-128.027-222.553-412.459-299.156-635.012-171.129-222.553 128.24-299.156 412.459-171.129 635.012 46.090 80.23 115.224 144.884 198.228 185.639 21.338 10.669 43.529 19.417 66.147 26.459 161.527 50.144 337.35 7.255 457.909-111.383 33.927-32.647 62.306-70.841 83.644-112.877 14.296-29.873 26.886-60.599 37.768-91.966l5.975-17.070-23.472 10.882c-14.723 6.828-29.66 13.656-44.383 20.271l-12.376 5.548c-8.748 5.548-20.058 4.694-27.952-1.92-4.694-4.054-7.682-9.815-8.108-16.003-0.427-6.401 1.707-12.803 5.975-17.497 3.627-3.627 7.682-6.828 12.376-8.748l134.215-61.239c5.121-2.134 11.096-2.134 16.217 0 4.268 1.92 7.895 4.908 10.456 8.962 1.707 2.774 3.414 6.401 5.121 10.029l58.252 126.32c7.468 18.35 4.908 22.618 0 29.019zM310.038 412.686c-35.847-37.768-59.319-85.778-67.214-137.415-3.841-26.672-4.908-53.771-3.414-80.657l0.427-12.803c1.067-28.806 24.965-51.424 53.771-50.784h420.568c27.739 0 50.571 21.765 51.851 49.504v6.401c3.627 46.73-1.92 93.886-16.217 138.482v0c-14.083 37.341-36.274 71.268-65.294 98.794-34.781 33.5-78.31 56.545-125.466 66.574-3.627 0.854-7.468 1.494-11.096 1.92 13.87 3.841 27.099 9.175 39.475 16.43 78.95 46.090 105.409 147.444 59.319 226.18-20.911 35.847-54.411 62.306-94.1 74.682-21.124 6.615-43.102 9.175-65.294 7.682-2.987 0-5.975-0.427-8.748-1.28-4.054-1.28-8.322-2.347-12.803-3.627l-1.494-0.427c-10.242-2.134-20.271-5.334-29.66-9.815-58.892-25.605-97.3-83.431-97.94-147.657-0.64-74.042 47.37-139.762 118.211-161.314l2.987-0.854c-57.185-8.962-109.676-37.341-148.084-80.443zM383.44 653.376v0c0.213 47.156 28.593 89.619 71.695 107.969 6.615 2.774 13.656 5.121 20.698 6.615l1.707 0.427c4.268 1.067 8.748 2.134 12.163 3.414 16.217 1.28 32.647-0.64 48.223-5.334 63.16-18.991 98.794-85.351 80.017-148.511-8.748-28.806-27.952-53.344-53.771-68.494-28.593-16.43-62.52-20.698-94.313-11.736l-1.494 0.64c-50.144 16.217-84.498 62.52-84.924 115.224zM495.463 450.24h8.535c15.15 0 30.513-1.28 45.449-4.268 38.835-8.108 74.469-27.099 102.848-54.838 23.898-22.618 42.249-50.571 53.771-81.51 12.376-39.262 16.857-80.657 13.443-121.839v0-5.548c0-5.121-7.041-5.121-7.468-5.121h-418.647c-1.707 0-7.255 0.427-7.468 5.548l-0.427 13.443c-1.494 23.898-0.64 47.797 2.561 71.482 6.188 42.676 25.605 82.15 55.265 113.304 38.408 43.742 93.886 68.921 151.925 69.134z" />
<glyph unicode="&#xe903;" glyph-name="ia-stars" d="M409.6 755.2c-70.103-189.778-219.822-339.497-409.6-409.6 189.778-70.353 339.497-219.822 409.6-409.6 70.353 189.778 219.822 339.497 409.6 409.6-189.778 70.103-339.497 219.822-409.6 409.6zM819.2 960c-35.051-94.889-109.911-169.749-204.8-204.8 94.889-35.051 169.749-109.911 204.8-204.8 35.051 94.889 109.911 169.749 204.8 204.8-94.889 35.051-169.749 109.911-204.8 204.8z" />
<glyph unicode="&#xe904;" glyph-name="imc-test" horiz-adv-x="687" d="M390.857 960c-57.322 0-103.986-46.664-103.986-103.986s46.664-103.986 103.986-103.986 103.986 46.664 103.986 103.986-46.664 103.986-103.986 103.986zM390.857 775.425c-44.454 0-80.589 36.135-80.589 80.589s36.135 80.589 80.589 80.589 80.589-36.135 80.589-80.589-36.135-80.589-80.589-80.589zM675.648 960c-6.499 0-11.698-5.199-11.698-11.698v-80.589h-115.944c-6.499 0-11.698-5.199-11.698-11.698s5.199-11.698 11.698-11.698h115.944v-210.571h-115.944c-6.499 0-11.698-5.199-11.698-11.698s5.199-11.698 11.698-11.698h115.944v-210.571h-115.944c-6.499 0-11.698-5.199-11.698-11.698s5.199-11.698 11.698-11.698h115.944v-428.681c0-6.499 5.199-11.698 11.698-11.698s11.698 5.199 11.698 11.698v1000.603c0 6.499-5.199 11.698-11.698 11.698zM206.152 416.804c-36.395 6.889-73.31-0.65-101.256-20.667-31.716-22.747-52.253-56.152-57.972-94.237-5.199-34.445 2.6-69.281 20.797-93.067 3.899-5.199 11.308-6.109 16.378-2.21 5.199 3.899 6.109 11.308 2.21 16.378-14.428 18.847-20.537 47.054-16.248 75.39 4.809 31.716 21.967 59.662 48.483 78.639 22.747 16.378 53.033 22.487 83.319 16.638 31.976-6.109 60.182-24.827 77.339-51.343 31.196-48.353 15.858-115.164-18.068-140.381-5.199-3.899-6.239-11.178-2.34-16.378 2.34-3.12 5.849-4.679 9.359-4.679 2.47 0 4.939 0.78 7.019 2.34 42.894 31.976 62.132 112.305 23.657 171.837-20.537 31.846-54.333 54.333-92.677 61.612zM224.739 348.174l-33.925-42.374c-5.849 2.86-12.218 4.289-18.717 3.899-21.057-1.17-37.175-19.237-36.135-40.294 0.52-10.139 5.069-19.497 12.608-26.386 7.019-6.369 15.988-9.749 25.477-9.749 0.65 0 1.43 0 2.080 0 21.057 1.17 37.175 19.237 36.135 40.165v0c-0.26 5.719-1.95 11.048-4.549 15.858l35.225 44.064c4.029 5.069 3.25 12.348-1.82 16.378s-12.478 3.25-16.508-1.82zM174.956 256.796c-4.029-0.13-7.799 1.17-10.659 3.769-2.99 2.6-4.679 6.239-4.939 10.269-0.39 8.189 5.849 15.208 14.038 15.598 0.26 0 0.52 0 0.78 0 3.64 0 7.149-1.3 9.879-3.769 2.99-2.6 4.679-6.239 4.939-10.269 0.39-8.189-5.849-15.208-14.038-15.598zM385.397 750.079c-54.853 0-99.436-44.584-99.436-99.436v-216.29c-30.546 21.967-66.941 34.055-105.026 34.055-99.696 0-180.935-81.109-180.935-180.805s81.109-180.805 180.935-180.805c54.593 0 105.026 24.307 138.951 65.251v-170.147c0-36.265 29.506-65.641 65.641-65.641s65.641 29.506 65.641 65.641v290.9c21.577 18.977 33.795 45.754 33.795 74.48v283.621c0 54.853-44.584 99.436-99.436 99.436zM321.056 215.982c-27.036-53.033-80.849-86.048-140.121-86.048-86.828 0-157.408 70.58-157.408 157.408s70.58 157.408 157.408 157.408c40.554 0 79.159-15.468 108.665-43.674 31.456-30.026 48.743-70.45 48.743-113.734 0-24.957-5.849-49.003-17.288-71.49zM461.437 367.021c0-23.397-10.659-45.104-29.376-59.792-2.86-2.21-4.419-5.589-4.419-9.229v-296.359c0-23.267-18.977-42.244-42.244-42.244s-42.244 18.977-42.244 42.244v206.672c12.218 24.957 18.587 51.603 18.587 79.159 0 47.963-18.717 92.677-52.383 126.863v236.308c0 41.984 34.055 76.040 76.040 76.040s76.040-34.055 76.040-76.040v-283.621z" />
<glyph unicode="&#xe905;" glyph-name="graphic-tendencies" horiz-adv-x="1096" d="M1050.453-24.533v576.853h-231.893v-565.76h-30.080v246.4h-232.107v-246.4h-23.253v384.213h-232.32v-384.213h-19.627v277.547h-232.107v-288.64h-49.067v-39.467h1096.32v39.467h-45.867zM242.987-24.533h-155.947v248.96h155.947v-248.96zM495.147-24.533h-156.16v355.627h156.16v-355.627zM750.507-24.533h-155.947v217.813h155.947v-217.813zM1012.267-24.533h-155.733v537.173h155.733v-537.173zM425.387 756.48l247.040-271.147 380.587 405.973v-182.827h40.747v251.52h-270.507v-42.453h197.333l-347.733-370.987-246.187 270.507-408.107-411.307 28.373-30.507 378.453 381.227z" />
<glyph unicode="&#xe906;" glyph-name="alert-triangle" d="M1006.26 227.191v0s-337.199 613.823-337.199 613.823c-46.152 84.083-152.014 114.803-236.097 68.651-28.989-15.865-52.786-39.662-68.651-68.651l-342.679-623.919c-22.355-40.672-27.691-87.545-14.711-132.11 12.836-44.566 42.402-81.487 83.074-103.842 25.672-14.134 54.661-21.634 83.939-21.634v0l682.619 10.24c95.91 1.442 172.638 80.622 171.195 176.532-0.433 28.124-7.788 56.104-21.345 80.91zM175.955-1.839h-2.163c-36.201 0-70.094 14.134-95.621 39.662s-39.662 59.565-39.518 95.766c0 22.643 5.769 45.143 16.73 65.046l342.679 623.919c23.365 43.412 68.363 70.238 117.544 70.238h2.163c49.181 0 94.179-26.826 117.544-70.094l337.199-613.967c22.932-41.393 22.211-92.304-1.731-133.12v0c-23.653-40.96-67.642-66.776-114.948-67.209l-679.878-10.096zM494.693 547.804h36.633v-252.106h-36.633v252.106zM512.865 241.469v0c-13.413-0.144-23.941-10.817-24.23-24.23-0.433-13.413 10.096-24.663 23.365-25.095 0.288 0 0.577 0 0.865 0 6.202 0 11.971 2.308 16.586 6.49 4.759 4.471 7.5 10.384 7.644 16.874 0 0.577 0 1.010 0 1.586-0.144 13.413-10.817 24.086-24.374 24.23z" />
<glyph unicode="&#xe907;" glyph-name="ambulance" d="M803.768 725.922h-138.456v52.498c0 52.354-42.546 94.9-94.9 94.9h-19.182c-52.21 0-94.9-42.546-94.9-94.9v-52.498h-456.329v-585.411h133.408c5.481-35.191 23.797-66.488 52.065-88.554 29.422-23.076 66.055-33.172 103.121-28.701 62.45 7.644 111.63 55.527 121.294 117.255h220.521c5.481-35.191 23.797-66.488 52.065-88.554 24.807-19.47 54.806-29.71 85.958-29.71 5.769 0 11.538 0.288 17.307 1.010 62.45 7.644 111.63 55.527 121.294 117.255h117.111v365.034l-220.232 220.376zM665.167 512.757v176.388h123.457l176.388-176.388h-299.845zM768.577 264.834s0.721 0 1.010 0c55.815-0.577 101.823-46.441 102.4-101.967l-0.288-3.461c-1.298-55.671-47.739-100.958-103.265-100.237v-5.336s0 5.336 0 5.336c-56.104-0.577-101.967 44.854-102.977 100.958v2.308c0.433 56.681 46.585 102.4 103.121 102.4zM374.121 151.761c-5.048-52.642-49.181-92.737-102.688-92.593v-2.163s0 2.163 0 2.163h-0.433c-53.652 0-97.785 40.96-102.112 94.035l1.298 0.433-2.019 8.798c0.144 56.825 46.585 103.121 103.265 103.265 56.969 0 103.41-46.585 103.554-103.842l-1.442-10.096h0.577zM285.566 301.755c-3.461 0.288-7.067 0.433-10.673 0.577h-1.298c-1.442 0.144-2.74 0.144-4.327 0h-1.442c-3.461-0.144-6.923-0.288-10.24-0.577l-2.596-0.433c-3.894-0.433-7.788-1.010-11.682-1.731-49.758-10.096-89.997-46.441-105.14-94.756l-0.433-1.298c-1.010-3.461-2.019-7.067-2.74-10.673-0.288-1.154-0.577-2.308-0.721-3.606-0.577-3.029-1.010-6.057-1.586-10.24 0-0.577 0-1.010-0.144-1.586h-95.766v511.856h591.757v-213.165h358.833v-298.691h-79.468c-7.644 70.526-67.93 125.188-139.322 125.188v0c-71.392 0-131.534-54.661-139.033-125.188h-218.501c0 1.010-0.288 2.019-0.433 3.173-0.288 2.885-0.721 5.769-1.298 8.654l-0.865 3.894c-0.721 3.461-1.586 6.923-2.596 10.24l-0.577 1.731c-16.586 52.498-62.594 90.429-117.976 96.631h-1.442zM492.818 725.922v52.498c0 32.018 26.105 58.123 58.267 58.123h19.182c32.018 0 58.123-26.105 58.123-58.123v-52.498h-135.572zM466.857 508.142h-95.766v95.91h-42.546v-95.91h-95.91v-42.546h95.91v-95.766h42.546v95.766h95.766v42.546z" />
<glyph unicode="&#xe908;" glyph-name="anthropometry" d="M861.319 960s-1.546-0.386-2.512-0.58c-0.773 0-1.546 0.58-2.512 0.58h-347.774c-10.626 0-19.321-8.694-19.321-19.321s8.694-19.321 19.321-19.321h333.476v-71.1h-105.491c-10.626 0-19.321-8.694-19.321-19.321s8.694-19.321 19.321-19.321h105.491v-89.262h-82.306c-10.626 0-19.321-8.694-19.321-19.321s8.694-19.321 19.321-19.321h82.306v-89.262h-105.491c-10.626 0-19.321-8.694-19.321-19.321s8.694-19.321 19.321-19.321h105.491v-89.262h-82.306c-10.626 0-19.321-8.694-19.321-19.321s8.694-19.321 19.321-19.321h82.306v-89.262h-105.491c-10.626 0-19.321-8.694-19.321-19.321s8.694-19.321 19.321-19.321h105.491v-89.262h-82.306c-10.626 0-19.321-8.694-19.321-19.321s8.694-19.321 19.321-19.321h82.306v-89.262h-105.491c-10.626 0-19.321-8.694-19.321-19.321s8.694-19.321 19.321-19.321h105.491v-76.51h-220.45c9.66 11.399 15.843 25.89 15.843 42.119v259.671c19.514 18.162 30.527 43.085 30.527 69.748v262.183c0 38.642-23.185 71.873-56.417 86.943 35.55 15.263 60.474 50.62 60.474 91.58 0 54.871-44.631 99.695-99.695 99.695s-99.695-44.631-99.695-99.695c0-40.96 24.924-76.317 60.474-91.58-33.232-15.070-56.417-48.302-56.417-86.943v-255.614c0-26.663 11.013-51.586 30.527-69.748v-266.24c0-16.036 6.183-30.72 15.843-42.119h-189.73l52.166 52.166c6.762 6.762 6.762 17.775 0 24.537s-17.775 6.762-24.537 0l-47.529-47.529v863.251l47.529-47.529c3.478-3.478 7.922-5.023 12.365-5.023s8.888 1.739 12.365 5.023c6.762 6.762 6.762 17.775 0 24.537l-77.283 77.283c-6.762 6.762-17.775 6.762-24.537 0l-77.283-77.283c-6.762-6.762-6.762-17.775 0-24.537s17.775-6.762 24.537 0l47.529 47.529v-862.672l-47.529 47.529c-6.762 6.762-17.775 6.762-24.537 0s-6.762-17.775 0-24.537l52.166-52.166h-94.478c-10.626 0-19.321-8.694-19.321-19.321s8.694-19.321 19.321-19.321h697.093c10.626 0 19.321 8.694 19.321 19.321 0 2.318-0.58 4.444-1.352 6.376 0.773 1.932 1.352 4.057 1.352 6.376v978.983c0 10.626-8.694 19.321-19.321 19.321zM509.488 377.866v217.165c0 34.584 28.208 62.599 62.599 62.599s62.599-28.208 62.599-62.599v-255.614c0-19.321-8.888-37.289-24.151-49.268-4.057-3.091-6.376-7.922-6.376-12.945v-260.637c0-17.775-14.491-32.266-32.266-32.266s-32.266 14.491-32.266 32.266v267.206c0 5.023-2.318 9.854-6.376 12.945-15.263 11.979-24.151 29.947-24.151 49.268v31.879zM505.431 780.124c0 36.903 29.947 66.85 66.85 66.85s66.85-29.947 66.85-66.85-29.947-66.85-66.85-66.85-66.85 29.947-66.85 66.85z" />
<glyph unicode="&#xe909;" glyph-name="arrow-down" d="M466.075-15.282v0c25.6-25.445 66.87-25.445 92.47 0l446.371 446.371c25.445 25.445 25.445 66.87 0 92.315-25.6 25.445-66.87 25.445-92.47 0l-335.127-335.127v683.132c0 36.15-29.324 65.319-65.319 65.319v0c-36.15 0-65.319-29.324-65.319-65.319v0-682.512l-335.127 334.972c-25.6 25.445-66.87 25.445-92.47 0-25.445-25.445-25.445-66.87 0-92.315l446.992-446.836z" />
<glyph unicode="&#xe90a;" glyph-name="arrow-up" d="M557.925 917.644v0c-25.6 25.445-66.87 25.445-92.47 0l-446.371-446.526c-25.445-25.445-25.445-66.87 0-92.315 25.6-25.445 66.87-25.445 92.47 0l335.127 335.127v-682.822c0-36.15 29.324-65.319 65.319-65.319v0c36.15 0 65.319 29.324 65.319 65.319v0 682.356l335.127-335.127c25.6-25.445 66.87-25.445 92.47 0 25.445 25.445 25.445 66.87 0 92.315l-446.992 446.992z" />
<glyph unicode="&#xe90b;" glyph-name="billing-outlined" d="M938.453 669.44c0 1.707-0.427 3.2-0.853 4.907-0.213 0.853-0.64 1.707-0.853 2.347-0.64 1.28-1.493 2.56-2.347 3.84-0.427 0.64-1.067 1.493-1.707 2.133-0.213 0.213-0.427 0.64-0.853 1.067l-120.32 110.933c-25.813 26.453-51.627 52.907-71.253 73.387-84.693 87.040-92.587 95.147-104.32 91.093h-438.4c-61.867 0-112.213-50.133-112.213-112v-792.533c0-61.867 50.347-112.213 112.213-112.213h628.907c61.867 0 112.213 50.347 112.213 112.213v613.12s-0.213 1.067-0.213 1.493zM661.333 875.093l120.32-111.147c32.213-33.067 56.533-57.173 74.667-74.88h-167.68c-15.147 0-27.52 12.373-27.52 27.307v158.72zM826.453-14.933h-628.907c-38.4 0-69.547 31.147-69.547 69.547v792.533c0 38.4 31.147 69.547 69.547 69.547h421.12v-200.107c0-38.613 31.36-69.973 70.187-69.973h207.147v-591.787c0-38.4-31.147-69.547-69.547-69.547zM329.813 553.6c-15.147 5.76-27.307 12.373-36.693 19.84l-17.28-25.813c11.733-9.387 26.88-17.28 45.013-23.68s36.48-10.24 55.040-11.307v-40.96h28.8v41.387c17.92 1.707 33.92 5.76 47.787 12.373s25.173 15.787 33.707 27.947c8.533 12.16 13.013 26.24 13.013 42.453 0 11.307-1.92 21.333-6.4 30.293s-10.667 16.427-18.773 22.187-17.28 10.667-27.733 14.293c-10.453 3.627-22.187 6.187-34.987 7.893l-6.613 0.853v99.2c27.52-2.347 52.48-11.093 74.453-26.24l16.427 26.24c-26.88 18.347-57.173 28.587-90.88 30.72v39.68h-28.8v-39.893c-26.667-2.56-48.64-10.88-65.707-25.387-17.067-14.293-25.813-33.067-26.027-56.32 0-21.973 7.253-39.040 22.187-51.627 14.933-12.373 35.627-20.48 61.867-23.68l7.68-1.067v-100.053c-15.573 1.28-30.72 4.693-45.867 10.453zM404.48 639.787c20.267-3.2 35.84-8.533 46.507-16.213s15.787-17.28 15.787-29.44c0-14.507-5.76-26.027-17.067-34.773-11.307-8.533-26.24-14.080-45.013-16v96.427zM330.88 690.773c-9.6 7.68-14.293 17.493-14.293 29.653 0 13.653 5.547 24.96 16.213 33.707s24.96 14.293 42.667 16.213v-95.573c-20.267 2.987-35.2 8.32-44.8 16zM618.667 326.4h-341.333c-11.733 0-21.333-9.6-21.333-21.333s9.6-21.333 21.333-21.333h341.333c11.733 0 21.333 9.6 21.333 21.333s-9.6 21.333-21.333 21.333zM618.667 177.067h-341.333c-11.733 0-21.333-9.6-21.333-21.333s9.6-21.333 21.333-21.333h341.333c11.733 0 21.333 9.6 21.333 21.333s-9.6 21.333-21.333 21.333z" />
<glyph unicode="&#xe90c;" glyph-name="calendar-dots" d="M767.561 668.16h-71.095v-30.135c0-9.801-7.899-17.701-17.701-17.701s-17.701 7.899-17.701 17.701v30.135h-298.423v-30.135c0-9.801-7.899-17.701-17.701-17.701s-17.701 7.899-17.701 17.701v30.135h-71.095c-5.266 0-9.655-4.242-9.655-9.655v-85.138s0 0 0 0h530.286v85.138c0 5.266-4.242 9.655-9.655 9.655zM246.784 547.767v-349.184c0-5.266 4.242-9.655 9.655-9.655h511.122c5.266 0 9.655 4.242 9.655 9.655v349.184h-530.286s0 0 0 0zM661.943 468.773c18.578 0 33.499-14.921 33.499-33.499s-14.921-33.499-33.499-33.499-33.499 14.921-33.499 33.499 14.921 33.499 33.499 33.499zM661.943 334.921c18.578 0 33.499-14.921 33.499-33.499s-14.921-33.499-33.499-33.499-33.499 14.921-33.499 33.499 14.921 33.499 33.499 33.499zM512 468.773c18.578 0 33.499-14.921 33.499-33.499s-14.921-33.499-33.499-33.499-33.499 14.921-33.499 33.499 14.921 33.499 33.499 33.499zM512 334.921c18.578 0 33.499-14.921 33.499-33.499s-14.921-33.499-33.499-33.499-33.499 14.921-33.499 33.499 14.921 33.499 33.499 33.499zM362.057 468.773c18.578 0 33.499-14.921 33.499-33.499s-14.921-33.499-33.499-33.499-33.499 14.921-33.499 33.499 14.921 33.499 33.499 33.499zM362.057 334.921c18.578 0 33.499-14.921 33.499-33.499s-14.921-33.499-33.499-33.499-33.499 14.921-33.499 33.499 14.921 33.499 33.499 33.499zM512 960c-282.77 0-512-229.23-512-512s229.23-512 512-512 512 229.23 512 512-229.23 512-512 512zM802.816 198.583c0-19.456-15.799-35.255-35.255-35.255h-511.122c-19.456 0-35.255 15.799-35.255 35.255v460.069c0 19.456 15.799 35.255 35.255 35.255h71.095v21.211c0 9.801 7.899 17.701 17.701 17.701s17.701-7.899 17.701-17.701v-21.211h298.423v21.211c0 9.801 7.899 17.701 17.701 17.701s17.701-7.899 17.701-17.701v-21.211h71.095c19.456 0 35.255-15.799 35.255-35.255v-460.069z" />
<glyph unicode="&#xe90d;" glyph-name="calendar-outlined" d="M937.057 835.188h-230.303v124.812h-38.642v-124.812h-349.706v124.812h-38.642v-124.812h-202.482c-10.626 0-19.321-8.694-19.321-19.321v-859.774c0-10.626 8.694-19.321 19.321-19.321h859.774c10.626 0 19.321 8.694 19.321 19.321v859.774c0 10.626-8.694 19.321-19.321 19.321zM917.736-24.586h-821.132v821.132h183.161v-124.812h38.642v124.812h349.706v-124.812h38.642v124.812h210.983v-821.132zM463.891 234.699l-136.984 136.984-27.242-27.242 152.248-152.248c3.671-3.671 8.501-5.603 13.718-5.603 0.386 0 0.773 0 1.159 0 5.41 0.386 10.626 2.898 14.104 7.149l233.974 292.516-30.14 24.151-220.45-275.514z" />
<glyph unicode="&#xe90e;" glyph-name="callcenter" horiz-adv-x="899" d="M421.282-64h-10.24c-4.759 0-9.663 0.288-14.423 0.865-23.509 2.885-41.248 22.643-41.681 46.441-0.288 17.163-0.577 39.662 0 62.161 0.288 25.239 20.336 45.719 45.575 46.585 14.278 0.577 29.855 0.721 48.892 0.721h69.228c16.009 0.721 31.441-6.49 41.104-19.182 6.779-9.086 10.24-20.192 9.807-31.441 5.048 0.288 9.952 0.865 15.144 1.442s11.538 1.442 17.451 1.731c13.125 0.721 26.249 2.74 39.085 5.913 23.509 4.471 45.431 15.144 63.603 30.72 16.442 15.576 27.98 35.624 33.172 57.834 4.471 16.874 7.067 34.181 7.932 51.633h-21.345c-16.874-1.586-31.874 10.817-33.46 27.691 0 1.442-0.144 2.74 0 4.183-0.288 3.75-0.288 7.5-0.144 11.25v344.122c0 4.038 0.288 7.932 0.721 11.971 1.010 15.576 14.134 27.547 29.855 26.97 8.509 0.144 17.019 0.288 25.528 0-0.577 13.269-1.875 26.537-4.038 39.662-17.595 107.304-92.448 196.435-195.281 232.059-17.74 6.057-36.056 10.528-54.517 13.413-6.49 0.865-12.98 1.586-19.47 1.875-8.942 0.577-17.307 0.721-25.528 0.721-23.941 0.288-47.739-2.452-70.959-8.077-32.306-8.077-63.026-21.634-91.006-39.806-21.057-13.846-40.239-30.287-56.969-48.892-15.288-16.73-28.557-35.335-39.662-55.094-13.99-25.095-24.23-52.065-30.287-80.189-3.173-15.144-5.192-30.432-6.202-45.864 0-2.163-0.288-4.327-0.433-6.634v-3.029h21.201c16.73 2.163 31.874-9.663 34.037-26.393 0.288-2.308 0.288-4.471 0-6.779v-354.217c0.288-6.202-0.433-12.259-1.875-18.172-3.461-12.259-14.567-20.768-27.259-20.913h-61.007c-7.5 0.288-14.855 1.298-22.211 3.173l-5.048 1.154c-47.306 9.086-83.074 48.027-87.977 95.91-1.731 14.567-2.596 29.134-2.452 43.845v157.638c-0.288 17.595 2.596 34.903 8.509 51.488 8.365 23.365 24.807 42.979 46.296 55.238 12.98 7.355 27.114 12.548 41.825 15.432 0.288 3.75 0.433 7.788 0.433 11.971 0 3.461 0 6.923 0.288 10.528 0.577 7.355 1.586 14.711 3.173 21.922 0.721 3.461 1.298 6.634 1.731 9.952 5.048 30.432 14.278 59.998 27.691 87.833 32.451 68.94 86.103 125.62 153.167 161.532 23.797 12.836 49.037 22.788 75.141 29.566 16.442 4.327 33.028 7.067 47.306 9.519 6.057 0.865 12.115 1.442 18.172 1.731l3.461 0.288c6.49 0.433 13.269 0.577 20.768 0.577 9.086 0 18.028-0.288 25.528-0.577 17.595-1.010 35.191-3.606 52.354-7.788 66.776-14.999 127.784-49.037 175.666-98.073 23.797-24.086 43.989-51.633 59.854-81.776 13.269-25.239 23.509-51.921 30.432-79.612 3.75-15.721 6.49-31.874 8.654-45.864 1.010-7.788 1.442-15.576 1.298-23.365v-8.509c19.182-3.317 37.354-10.961 53.075-22.355 23.076-17.595 37.931-43.845 41.393-72.69 1.875-12.836 2.596-25.961 2.452-38.941v-158.504c0.433-14.278-1.010-28.557-4.183-42.546-7.5-36.056-33.172-65.623-67.786-78.314-8.077-3.173-16.297-5.336-24.807-6.634v0-0.577c-0.577-33.749-7.5-67.065-20.624-98.217-13.701-33.028-38.22-60.286-69.517-77.449-20.192-10.817-41.825-18.461-64.325-22.932-25.239-5.192-50.912-8.365-76.728-9.375 0-9.952-2.885-19.615-8.077-27.98-9.23-14.278-25.239-22.643-42.258-21.778h-98.794zM410.898-8.329h103.265v14.711c0 9.807-0.144 19.903 0.288 29.855-34.614 0-69.084 0-103.41 0 0-16.586 0-31.008-0.144-44.566v0zM756.75 561.65h-9.086v-315.421h3.317c13.99-0.433 27.98 0.433 41.825 2.308 29.134 3.606 50.479 29.134 49.037 58.411 0 6.202 0 12.403 0.288 18.749 0.144 10.24 0.433 20.768 0.433 31.153 0 38.941 0.144 80.766 0 128.216v5.336c0.288 6.923 0 13.846-0.721 20.624-1.442 17.595-11.682 33.316-27.259 41.825-11.538 5.913-24.374 8.942-37.354 8.798h-20.624zM151.148 247.238v315.132h-31.153c-8.365 0-16.73-1.154-24.663-3.75-19.615-5.336-34.326-21.49-37.931-41.537-1.731-9.375-2.452-18.894-2.019-28.268v-156.196c-0.288-11.538 0.288-23.22 1.442-34.614 1.442-17.163 11.105-32.451 25.961-41.104 10.528-5.913 22.355-9.086 34.47-9.23 2.885-0.288 6.057-0.288 9.807-0.288h15.721c2.885 0.288 5.769 0.144 8.365 0z" />
<glyph unicode="&#xe90f;" glyph-name="camera-bold" d="M1023.707 599.259c-1.17 87.333-72.265 156.087-159.89 159.451-28.379 1.17-56.905 0.293-85.285 0.585-45.349 0.439-58.368 13.166-60.562 58.661-3.072 64.951-43.593 104.448-109.275 105.033-60.27 0.585-120.539 0.293-180.809 0-80.603-0.146-115.858-33.061-121.563-113.518-2.487-34.377-16.823-49.006-51.639-50.030-26.185-0.878-52.37 0-78.409-0.293-107.52-1.17-175.835-70.217-176.128-178.469-0.293-141.019-0.293-282.039 0-423.058 0.146-110.153 68.754-179.054 178.469-179.493 111.47-0.439 222.939 0 334.409 0v0c116.005 0.146 232.009-1.024 348.014 0.585 89.527 1.17 161.499 71.241 162.67 160.037 1.902 153.454 1.902 307.054 0 460.654zM512.439 101.449c-159.89 0-288.037 127.561-288.622 287.598-0.585 161.353 128.878 290.523 290.085 289.646 160.037-0.878 287.159-129.317 286.866-289.353-0.293-159.89-128.439-287.744-288.329-287.89zM512.878 609.938c-121.71 0.293-219.429-96.11-220.453-217.673-0.878-123.319 96.402-222.062 219.282-222.208 121.856-0.146 219.429 96.256 220.453 217.673 1.024 123.465-96.11 221.915-219.282 222.208z" />
<glyph unicode="&#xe910;" glyph-name="chef" d="M466.868-56.225c-7.585 0-18.204 1.138-26.359 9.292-9.102 9.102-9.861 21.807-9.861 30.72 0.569 41.719 0.379 84.385 0 124.587 0 12.326 1.896 30.341 20.29 43.425 63.526 45.511 126.862 91.401 190.199 137.481 11.567 8.344 24.083 9.861 37.357 4.551 13.653-5.499 27.307-10.999 40.96-16.308 23.324-9.102 46.649-18.394 69.784-28.255 49.683-21.239 86.471-83.247 87.23-147.721 0.379-32.047 0.379-63.905 0-95.953-0.569-50.821-29.772-61.63-54.044-61.63-42.287 0-84.575 0-126.862 0h-98.607c-43.046 0-86.281 0.19-129.327-0.379-0.379 0-0.569 0-0.948 0zM662.756 259.887c-63.336-46.080-126.862-92.16-190.388-137.671-2.655-1.896-5.12-3.603-4.93-13.464 0.379-40.391 0.569-83.247 0-125.345 0-1.138 0-2.086 0-3.034v0c43.236 0.569 86.661 0.379 129.896 0.379h98.607c42.287 0 84.575 0 126.673 0 10.050 0 17.256 0 17.636 25.41 0.379 31.668 0.379 63.336 0 95.194-0.569 48.924-29.203 99.176-65.043 114.347-22.756 9.671-45.89 18.773-68.836 27.876-13.843 5.499-27.496 10.809-41.339 16.498h-2.086zM552.012 31.573s-1.138 0-1.707 0c-29.393 0.759-50.252 22.945-49.683 52.717 0.19 14.601 5.689 27.686 15.55 36.978s23.135 14.222 37.736 13.843c29.393-0.759 50.252-22.945 49.683-52.717-0.19-14.601-5.689-27.686-15.55-36.978-9.481-8.913-22.187-13.843-36.219-13.843zM552.012 98.702c-4.551 0-8.344-1.327-10.809-3.793-3.413-3.224-4.172-7.775-4.172-11.188 0-9.481 5.12-15.36 14.222-15.55 4.741 0 8.913 1.138 11.567 3.793 3.413 3.224 4.172 7.775 4.172 11.188 0 9.481-5.12 15.36-14.222 15.55v0s-0.379 0-0.759 0zM381.345-56.225c-0.948 0-1.707 0-2.465 0-20.67 0.759-41.15 0.569-61.819 0.379h-43.804s0 0 0 0h-8.154c-21.049 0-42.287 0-63.336 0-27.686 0.379-47.218 20.67-47.787 49.304 0 11.188-0.569 22.187-1.138 33.375-1.517 37.736-3.224 76.8 6.068 115.484 12.705 52.907 41.529 90.074 83.437 107.71 22.566 9.481 45.511 18.584 68.267 27.496 13.274 5.31 26.548 10.43 39.633 15.739 13.843 5.499 26.359 4.361 37.547-3.793 27.686-20.29 51.010-36.788 73.197-51.959 10.24-7.016 15.36-15.36 15.55-24.652 0-14.033-11.757-22.187-16.119-25.221s-8.723-6.258-13.084-9.481c-6.827-5.12-13.843-10.050-20.859-14.601-6.068-3.982-11.757-10.050-11.567-28.065 0-21.239 0-42.287 0-63.526 0-29.582 0-59.164 0.379-88.747 0-9.671-0.948-21.997-9.861-30.72-7.964-7.775-18.394-8.723-23.893-8.723zM342.471-19.058c11.947 0 24.083 0 36.030-0.379 0 0.569 0 1.327 0 2.276-0.379 29.772-0.379 59.544-0.379 89.505 0 21.049 0 42.098 0 63.147 0 26.927 9.292 46.839 28.255 58.975 6.447 4.172 12.895 8.913 19.153 13.464 2.276 1.707 4.551 3.413 7.016 5.12-20.101 14.033-41.529 29.203-66.37 47.218 0 0.19-0.569 0-2.276-0.569-13.274-5.31-26.548-10.619-40.012-15.929-22.566-8.913-45.132-17.825-67.508-27.307-31.099-13.084-51.959-40.96-62.009-82.679-8.154-33.754-6.637-68.456-5.12-105.244 0.569-11.378 0.948-22.945 1.138-34.323 0-8.913 3.982-13.274 11.757-13.274 20.859-0.379 41.908-0.19 62.767 0h51.769c8.344 0 16.877 0.19 25.6 0.19zM689.493 473.031h-347.97v174.839s-1.327 0.569-5.689 2.276c-54.993 22.945-88.367 86.85-76.041 145.446 13.084 61.63 66.56 106.193 127.431 106.193 0.379 0 0.759 0 1.138 0 8.913 0 12.895 1.896 18.394 8.344 26.359 31.858 65.991 49.873 108.468 49.873v0c42.856 0 82.868-18.204 109.796-50.062 5.31-6.258 8.344-7.775 15.929-7.775 63.336 0.379 117.76-44.373 130.465-107.33v0c12.136-59.733-21.618-122.311-78.507-145.636-2.086-0.948-3.034-1.517-3.413-1.707 0 0 0-1.327 0-3.982 0-4.551 0-127.431 0-152.083v-18.204zM377.932 509.63h274.963c0 56.889 0 128.759 0 132.741-0.569 20.101 7.775 33.185 26.169 40.77 40.77 16.687 65.233 61.63 56.51 104.486-9.292 45.701-48.356 78.886-94.246 77.938-18.394 0-32.047 6.068-44.373 20.67-19.911 23.704-49.683 37.167-81.73 37.167v0c-31.668 0-61.061-13.274-80.782-36.599-12.516-14.791-27.307-20.67-47.028-21.239-43.994-0.19-82.489-32.237-92.16-77.369-8.913-41.908 14.981-87.799 54.424-104.107 6.447-2.655 26.169-10.999 28.065-34.323v-140.136zM520.154 282.264c-8.533 0-16.877 0.759-25.41 2.086-83.058 14.222-141.843 75.283-149.618 155.686l-1.896 21.997h349.867s-1.707-19.911-1.707-19.911c-1.707-18.773-5.12-34.133-10.999-48.735-26.927-66.75-92.919-111.123-160.237-111.123zM384.569 425.624c12.516-54.424 56.51-94.815 116.433-105.055 58.975-10.050 121.553 27.117 145.636 86.661 2.276 5.879 4.172 11.947 5.689 18.394h-267.567z" />
<glyph unicode="&#xe911;" glyph-name="chevron-down-rounded" d="M1024 448c0 282.393-229.751 512-512 512s-512-229.607-512-512 229.751-512 512-512 512 229.607 512 512zM51.2 448c0 254.125 206.675 460.8 460.8 460.8s460.8-206.675 460.8-460.8-206.675-460.8-460.8-460.8-460.8 206.675-460.8 460.8zM748.818 576.937c-12.259 12.259-32.162 12.259-44.277 0l-192.108-192.108-192.252 192.397c-11.971 12.548-31.874 12.98-44.277 1.010-12.548-11.971-12.98-31.874-1.010-44.277 0.288-0.288 0.577-0.721 1.010-1.010l214.319-214.319c12.259-12.259 32.162-12.259 44.277 0l214.463 214.030c12.259 12.259 12.259 32.162 0 44.277v0z" />
<glyph unicode="&#xe912;" glyph-name="chevron-left-rounded" d="M512-64c282.393 0 512 229.751 512 512s-229.607 512-512 512-512-229.751-512-512 229.607-512 512-512zM512 908.8c254.125 0 460.8-206.675 460.8-460.8s-206.675-460.8-460.8-460.8-460.8 206.675-460.8 460.8 206.675 460.8 460.8 460.8zM640.937 211.182c12.259 12.259 12.259 32.162 0 44.277l-192.108 192.108 192.397 192.252c12.548 11.971 12.98 31.874 1.010 44.277-11.971 12.548-31.874 12.98-44.277 1.010-0.288-0.288-0.721-0.577-1.010-1.010l-214.319-214.319c-12.259-12.259-12.259-32.162 0-44.277l214.030-214.463c12.259-12.259 32.162-12.259 44.277 0v0z" />
<glyph unicode="&#xe913;" glyph-name="chevron-right-rounded" d="M512 960c-282.393 0-512-229.751-512-512s229.607-512 512-512 512 229.751 512 512-229.607 512-512 512zM512-12.8c-254.125 0-460.8 206.675-460.8 460.8s206.675 460.8 460.8 460.8 460.8-206.675 460.8-460.8-206.675-460.8-460.8-460.8zM383.063 684.818c-12.259-12.259-12.259-32.162 0-44.277l192.108-192.108-192.397-192.252c-12.548-11.971-12.98-31.874-1.010-44.277 11.971-12.548 31.874-12.98 44.277-1.010 0.288 0.288 0.721 0.577 1.010 1.010l214.319 214.319c12.259 12.259 12.259 32.162 0 44.277l-214.030 214.463c-12.259 12.259-32.162 12.259-44.277 0v0z" />
<glyph unicode="&#xe914;" glyph-name="chevron-up-rounded" d="M0 448c0-282.393 229.751-512 512-512s512 229.607 512 512-229.751 512-512 512-512-229.607-512-512zM972.8 448c0-254.125-206.675-460.8-460.8-460.8s-460.8 206.675-460.8 460.8 206.675 460.8 460.8 460.8 460.8-206.675 460.8-460.8zM275.182 319.063c12.259-12.259 32.162-12.259 44.277 0l192.108 192.108 192.252-192.397c11.971-12.548 31.874-12.98 44.277-1.010 12.548 11.971 12.98 31.874 1.010 44.277-0.288 0.288-0.577 0.721-1.010 1.010l-214.319 214.319c-12.259 12.259-32.162 12.259-44.277 0l-214.463-214.030c-12.259-12.259-12.259-32.162 0-44.277v0z" />
<glyph unicode="&#xe915;" glyph-name="clip" d="M512-64c-18.394 0-37.357 2.276-56.13 7.206-93.867 24.462-161.944 110.554-161.564 204.99v109.796c0.379 179.769 0.759 365.796-0.379 548.788-0.379 48.166 24.273 94.625 65.801 124.018 41.15 29.203 92.35 36.978 137.292 21.049 59.923-21.428 103.538-77.179 103.727-132.551 0.569-122.69 0.379-245.191 0.379-367.881v-178.252c0-14.033-2.276-25.221-7.206-35.461-19.721-40.391-64.853-62.009-104.865-50.252-44.563 12.895-69.215 44.942-69.404 89.884-0.19 84.954 0 169.719 0 254.673v101.831c0 5.31 4.361 9.481 9.481 9.481s9.481-4.172 9.481-9.481v-101.831c0-84.954 0-169.719 0-254.483 0-36.978 18.773-61.061 55.751-71.68 30.72-8.913 67.129 8.723 82.489 40.391 3.603 7.585 5.31 15.929 5.31 27.117v178.441c0 122.501 0 245.191-0.379 367.692-0.19 46.839-39.443 96.332-91.212 114.726-39.064 13.843-83.816 7.016-119.846-18.584-36.409-25.979-58.216-66.56-57.837-108.658 1.138-182.993 0.759-369.019 0.569-548.978v-109.796c-0.379-85.902 61.63-164.219 147.153-186.406 96.332-25.031 191.905 22.376 232.296 115.295 9.671 22.187 14.412 45.321 14.412 69.025-0.379 119.846-0.19 239.692-0.19 359.538v119.846c0 5.31 4.172 9.481 9.481 9.481s9.481-4.172 9.481-9.481v-119.846c0-119.846 0-239.692 0.19-359.538 0-26.359-5.31-51.959-15.929-76.61-36.409-83.437-113.399-133.31-198.353-133.31z" />
<glyph unicode="&#xe916;" glyph-name="clock-rush" d="M636.444 832c-210.773 0-382.151-171.236-382.151-381.867s171.378-382.151 382.151-382.151 381.867 171.378 381.867 382.151-171.236 381.867-381.867 381.867zM636.444 104.96c-190.293 0-345.173 154.88-345.173 345.173s154.88 344.889 345.173 344.889 344.889-154.738 344.889-344.889-154.738-345.173-344.889-345.173zM657.636 428.942v326.684h-36.978v-392.107l196.267 118.471-19.2 31.573-140.089-84.622zM131.129 800.284h213.191v-36.978h-213.191v36.978zM0 669.156h213.191v-36.978h-213.191v36.978zM0 402.347h213.191v-36.978h-213.191v36.978zM110.364 151.609h213.191v-36.978h-213.191v36.978zM92.018 538.027h121.173v-36.978h-121.173v36.978zM126.436 278.044h121.173v-36.978h-121.173v36.978z" />
<glyph unicode="&#xe917;" glyph-name="clock-time" d="M873.852 809.852c-96.503 96.647-224.935 149.861-361.564 150.148h-0.288c-282.175 0-512-229.537-512-511.712 0-136.773 53.070-265.348 149.861-362.139 96.647-96.791 225.222-150.004 361.996-150.148h0.288c282.175 0 511.856 229.537 512 511.712v0.431c-0.288 136.629-53.501 265.061-150.148 361.708zM511.712 923.757h0.288c126.993 0 246.364-49.474 336.252-139.074 89.888-89.744 139.506-209.258 139.506-336.396-0.288-261.897-213.573-475.326-475.47-475.901h-0.288c-126.993 0-246.364 49.474-336.252 139.074-89.888 89.744-139.506 209.258-139.506 336.252 0 127.137 49.33 246.508 139.074 336.539s209.258 139.362 336.396 139.506zM497.762 163.092h36.243v-167.119h-36.243v167.119zM755.919 498.625l-18.697 31.065-203.362-122.679v458.93h-36.099v-523.074l258.157 155.757zM80.827 449.151h146.697v-36.243h-146.697v36.243zM796.908 449.007h153.888v-36.243h-153.888v36.243zM196.602 137.348l-1.007-1.007 25.6-25.6 113.187 113.043-25.744 25.6-112.036-112.036zM835.452 724.854l1.007 1.007-25.6 25.6-99.955-99.811 25.744-25.6 98.804 98.804zM694.081 227.468l25.632 25.623 116.727-116.768-25.632-25.623-116.727 116.768zM195.787 725.863l25.627 25.627 95.9-95.9-25.627-25.627-95.9 95.9z" />
<glyph unicode="&#xe918;" glyph-name="close-session" d="M526.441 16.607h-0.525c-35.971-0.525-71.943-1.050-107.914-1.575-82.97-1.313-168.566-2.888-252.587-1.575-46.474 0.525-73.518 13.916-73.518 80.345 0 235.52 0 471.040 0 706.823 0 66.429 27.044 79.819 73.518 80.345 84.021 1.050 169.616-0.263 252.587-1.575 35.971-0.525 71.943-1.050 107.914-1.575h0.525c21.53 0 39.122 17.329 39.385 38.859 0 21.793-17.329 39.647-38.859 39.91-35.971 0.525-71.68 1.050-107.651 1.575-83.495 1.050-169.616 2.626-254.687 1.575-97.674-1.313-151.499-57.764-151.499-159.114 0-235.783 0-471.303 0-706.823 0-101.35 53.826-157.801 151.237-159.114 20.743 0 41.485-0.263 62.49-0.263 64.591 0 129.182 1.050 192.459 2.101 35.971 0.525 71.68 1.050 107.651 1.575 21.793 0 39.122 18.117 38.859 39.91 0 21.53-17.854 38.859-39.385 38.859zM991.179 512.853c-56.451 56.189-115.003 111.59-171.454 165.153l-49.362 46.736c-15.754 14.966-40.697 14.441-55.664-1.313s-14.441-40.697 1.313-55.664l49.625-46.999c46.211-43.848 93.473-88.747 139.684-134.17h-547.446c-21.793 0-39.385-17.592-39.385-39.385s17.592-39.385 39.385-39.385h547.709c-46.211-45.424-93.473-90.322-139.684-134.17l-49.625-46.999c-15.754-14.966-16.279-39.91-1.313-55.664 7.614-8.139 18.117-12.341 28.619-12.341 9.715 0 19.43 3.676 27.044 10.765l49.362 46.736c56.714 53.563 115.266 108.964 171.454 165.153 17.592 17.329 27.307 40.697 27.307 65.641s-9.715 48.312-27.044 65.641z" />
<glyph unicode="&#xe919;" glyph-name="cyclical-worker" d="M209.92 439.324h0.142s1.138 2.987 1.138 2.987h-0.142c2.133 8.676-2.56 17.636-11.093 20.907-6.969 2.276-14.507 0-19.058-5.404-12.516-12.373-25.031-24.747-37.404-37.262-4.267-4.267-8.391-8.533-12.516-12.8l-6.827-6.969-0.284 20.622c-0.711 27.733 0.284 55.751 2.987 83.2 4.551 39.538 15.644 77.653 32.853 113.493 33.138 70.542 86.187 128.711 153.316 168.249 52.622 31.004 112.64 49.209 173.653 52.48 28.302 1.564 56.747 0 84.907-4.836 35.84-5.547 70.542-16.356 103.111-32.142 59.307-28.444 110.791-71.68 149.049-125.013 1.28-1.849 2.56-3.556 3.982-5.262 0.711-0.853 2.276-2.56 2.276-2.56l2.418-2.702 25.6 20.764-1.991 2.987s-0.996 1.564-1.422 2.133c-23.751 34.987-52.622 65.849-85.902 91.876-69.404 54.329-152.747 85.618-240.924 90.169-45.369 2.133-90.453-3.413-134.116-16.356-36.267-10.24-70.969-25.458-103.111-45.084-100.551-61.156-171.236-162.418-193.991-277.76-5.404-26.738-8.107-54.044-8.107-81.351v-51.769c0-0.711 0-1.138 0-1.28-0.142 0-0.427 0.284-0.996 0.853l-21.476 21.476c-12.089 12.089-24.178 24.178-36.409 36.267-5.547 5.404-14.080 6.4-20.622 2.844-7.253-3.413-10.667-11.662-8.249-18.916 0.996-4.551 3.271-8.533 6.542-11.662l82.347-82.204c2.133-2.133 4.409-4.267 6.969-6.258 2.702-2.133 6.116-3.129 9.671-3.129 3.982 0 7.822 1.564 10.667 4.409l86.756 86.613c2.56 2.418 4.551 5.262 6.116 8.533zM1017.031 462.507v0s-0.427 1.707-0.427 1.707c-0.996 4.551-3.413 8.533-6.827 11.52l-83.2 81.493c-2.276 2.133-4.551 4.267-6.969 6.116-2.418 1.707-5.404 2.844-9.529 3.129-4.124 0-7.964-1.707-10.809-4.409l-85.902-87.324c-2.844-2.844-5.12-6.258-6.684-10.098-2.987-8.96 1.849-18.773 10.809-22.187 7.111-2.133 14.507 0 19.058 5.547 12.231 12.373 24.747 24.889 36.978 37.547 4.693 4.693 9.244 9.529 13.653 14.222l5.404 5.689 0.427-20.622c0.853-27.733 0.142-55.751-2.133-83.2-4.267-39.538-14.933-77.796-31.858-113.778-32.569-70.827-84.907-129.422-151.751-169.671-52.338-31.573-112.213-50.204-173.227-54.044-28.302-1.849-56.889-0.427-85.049 4.124-35.84 5.262-70.542 15.644-103.396 31.147-59.591 27.876-111.502 70.542-150.187 123.733-1.28 1.849-2.56 3.556-3.84 5.12-0.711 0.853-2.276 2.56-2.276 2.56l-2.56 2.702-25.6-21.049 3.556-4.978c24.036-34.702 53.191-65.28 86.756-91.022 69.973-53.902 153.742-84.338 242.062-88.036 5.12-0.142 10.24-0.284 15.36-0.284 40.249 0 80.071 5.973 118.613 17.92 36.124 10.667 70.684 26.169 102.684 46.080 99.84 62.009 169.671 163.982 191.431 279.609 5.12 26.738 7.538 54.187 7.111 81.351l-0.569 48.498v3.271c0 0.711 0.142 1.138 0 1.28 0.142 0 0.427-0.284 0.996-0.853l21.618-21.191c12.231-11.947 24.462-23.893 36.693-35.982 5.689-5.404 14.222-6.4 20.622-2.56 6.4 3.129 9.813 10.382 8.533 17.209zM671.147 234.809l3.982 0.284c5.547 0.711 10.809 3.271 14.791 7.111 5.12 4.836 8.107 11.378 8.249 18.489 0 0.711 0 1.422 0 1.991 0 4.551 0 9.102 0 13.796v1.138c0.427 15.929-0.569 32-2.844 47.787-12.231 75.804-70.4 137.387-145.209 154.027 44.942 17.778 74.24 61.44 73.529 110.507-1.138 31.289-15.076 61.44-37.973 82.631-21.049 19.911-49.493 30.72-78.080 29.44-28.587 0.996-56.889-9.813-77.653-29.44-23.609-21.618-37.547-52.48-38.258-84.622 0.284-32.284 13.938-63.573 37.404-85.76 10.382-9.813 22.756-17.636 36.124-22.756-5.404-1.138-10.667-2.56-15.929-4.267-31.716-9.813-60.16-28.16-82.347-52.764-20.338-22.187-35.129-49.209-42.951-78.364-6.258-26.88-8.533-54.471-6.969-81.778 0-7.111 2.56-13.938 7.68-19.2 4.978-5.12 11.804-8.107 18.916-8.107 0.711 0 1.422 0 1.707 0h5.262s320.711 0 320.711 0zM540.587 448.711c63.573-13.084 113.067-64.853 123.307-128.853 1.991-13.938 2.844-28.16 2.418-42.382v-1.28c0-3.129 0-6.258 0-9.529h-32.569v19.769c0 8.107 0 17.351 0.142 26.311 0.284 6.827-2.133 13.369-6.684 18.489v0c-4.267 4.551-10.382 7.111-17.067 7.253-6.684 0-12.8-2.844-17.493-7.68s-7.111-11.093-6.969-17.636c-0.711-17.351-0.853-32.284-0.569-46.649h-107.947c-15.502 0-31.147 0-46.933 0 0.142 15.076 0.284 31.858-0.569 48.213-0.427 12.658-10.524 22.898-23.040 23.467-0.569 0-1.138 0-1.707 0-6.116 0-11.947-2.418-16.356-6.684-4.409-4.409-6.969-10.667-6.969-16.782-0.142-15.787-0.142-31.858 0-48.071-9.956 0.142-20.622 0-32.996 0-0.996 23.324 0.996 46.649 6.116 69.262 6.542 24.178 18.773 46.649 35.698 65.138 18.347 20.48 42.098 35.698 68.409 43.947 26.453 8.533 54.898 9.813 82.062 4.124zM563.911 649.102v0c16.782-15.502 27.022-37.404 27.876-60.018 0.569-22.471-7.68-43.804-23.182-60.16s-36.409-25.6-58.88-26.169c-22.044-0.569-43.093 7.396-59.164 22.329l-1.28 1.138c-15.644 14.649-24.889 34.702-26.027 56.178-1.138 22.187 6.542 43.52 21.333 59.876 2.133 2.276 4.267 4.551 6.684 6.684 13.796 13.369 32.142 20.764 51.2 21.049 1.28 0 2.418 0 4.124 0h1.422c20.622 0.853 41.102-6.827 55.893-20.907z" />
<glyph unicode="&#xe91a;" glyph-name="dartboard" horiz-adv-x="1006" d="M815.739 739.191l190.522 57.257-139.033 24.23-37.21 139.466-44.277-198.454-43.268-45.287c-81.487 72.69-186.339 112.64-295.662 112.64h-3.173c-244.174-2.308-443.060-202.637-443.637-446.666v-4.038c1.586-117.688 48.315-228.309 131.678-311.527 83.362-83.074 194.127-129.659 311.959-130.812h2.74c243.308 0.577 443.493 199.175 446.377 442.483v3.894c0 115.525-43.845 224.703-123.601 308.065l46.585 48.748zM556.71 368.532c-3.75-29.566-18.894-55.815-42.546-74.132-23.653-18.172-52.931-26.105-82.497-22.355s-55.815 18.894-74.132 42.546c-18.172 23.653-26.105 52.931-22.355 82.497s18.894 55.815 42.546 74.132c19.326 14.855 43.412 23.076 67.786 23.22h0.721c22.932 0 45.575-7.355 64.325-20.624l-88.41-92.448 26.826-25.672 87.833 92.016c16.442-22.932 23.365-50.912 19.759-79.035zM703.387 380.214c-1.731-140.043-116.967-254.269-257.010-254.702h-1.586c-141.341 1.442-253.548 113.217-255.423 254.558v2.452c0.288 140.475 114.803 255.712 255.279 257.010h1.731c60.43 0 118.842-21.345 164.85-60.286l-74.709-78.17c-30.576 23.365-68.219 34.037-106.727 29.855-39.518-4.327-74.997-23.797-99.804-54.806-21.201-26.393-32.883-59.565-32.739-93.458v-1.298c1.298-82.208 66.776-147.11 148.985-147.831 81.343 0.144 148.264 66.488 149.129 147.831v1.298c0 33.605-11.394 66.344-32.306 92.448l74.709 78.314c42.258-47.017 65.478-107.448 65.478-170.763v-2.308zM637.043 606.215c-53.075 45.431-120.572 70.526-190.522 70.526h-2.019c-160.811-1.442-291.912-133.408-292.345-294.22v-2.74c2.163-161.821 130.668-289.749 292.489-291.479h1.731c160.379 0.433 292.201 131.245 294.22 291.624v2.452c0 73.555-27.114 143.648-76.728 197.877l79.612 83.218c72.401-76.151 112.207-175.811 112.207-281.095v-3.75c-2.596-222.972-186.195-404.985-409.312-405.562h-2.596c-224.992 2.308-403.543 180.426-406.571 405.273v3.894c0.433 223.694 182.878 407.292 406.571 409.312h3.029c99.66 0 195.425-36.345 269.99-102.256l-79.612-83.218z" />
<glyph unicode="&#xe91b;" glyph-name="desk-worker" d="M678.4 731.175v0c63.015 0 114.412 51.397 114.412 114.412s-51.397 114.412-114.412 114.412-114.412-51.397-114.412-114.412c0-63.015 51.397-114.412 114.412-114.412zM678.4 920.418c41.354 0 74.831-33.674 74.831-74.831s-33.477-74.831-74.831-74.831-74.831 33.674-74.831 74.831c0 41.157 33.674 74.831 74.831 74.831zM793.797 464.738v159.902c0 56.123-45.883 102.006-102.006 102.006h-24.812c-56.123 0-102.006-45.883-102.006-102.006v-159.902h-54.154v153.403h-293.809v-153.403h-59.471v-521.846h710.498v521.846h-74.437zM666.782 687.065h24.812c5.908 0 11.618-0.788 17.132-2.363l-30.129-32.295-29.145 32.098c5.711 1.575 11.422 2.56 17.526 2.56zM604.357 624.64c0 13.391 4.332 26.388 12.209 37.022l61.44-67.545 63.409 67.742c8.074-10.634 12.406-23.828 12.406-37.218v-159.902s-149.662 0-149.662 0v159.902zM256.788 578.56h214.055v-113.625h-214.055v113.625zM828.455-17.329h-631.335v442.486h631.335v-442.486z" />
<glyph unicode="&#xe91c;" glyph-name="disabled-eye" d="M45.77 832.776l196.267-181.993c-136.378-83.161-227.142-199.835-231.021-204.955l-11.016-14.274 11.016-14.274c8.999-11.792 225.59-288.272 499.433-288.272 74.162 0 151.118 20.48 228.538 60.975l171.598-159.185 31.651 34.133-864.815 801.978-31.651-34.133zM510.293 284.315c-81.299 0-147.394 66.095-147.394 147.394 0 5.585 0.31 11.326 1.086 17.222h95.728l142.429-132.034c-26.221-21.101-58.492-32.582-91.85-32.582zM326.439 495.476l-4.344-17.687c-3.879-15.515-5.741-31.030-5.741-46.080 0-106.899 87.040-193.939 193.939-193.939 46.39 0 91.074 16.756 126.293 47.166l65.319-60.509c-65.784-32.272-130.172-48.562-191.612-48.562-217.678 0-405.411 202.938-450.715 256 28.238 33.047 109.692 121.949 218.608 185.716l131.413-121.794h-83.161zM1009.726 445.828v0c-8.999 11.792-225.59 288.272-499.433 288.272-62.061 0-126.293-14.429-190.836-42.667l-10.861-4.81 37.547-34.909 4.655 1.862c54.458 22.497 108.141 33.978 159.496 33.978 217.522 0 405.411-202.938 450.715-256-24.359-28.548-93.401-104.417-186.027-165.547l-8.223-5.43 35.685-33.202 5.12 3.413c120.087 80.834 198.904 182.148 202.162 186.492l11.016 14.274-11.016 14.274zM645.741 373.372l35.685-33.202 4.499 9.619c12.102 26.065 18.308 53.527 18.308 81.92 0 106.899-87.040 193.939-193.939 193.939-8.378 0-17.222-0.621-27.462-2.172l-20.015-2.793v-77.265l46.545-43.287v78.972h0.931c81.299 0 147.394-66.095 147.394-147.394 0-18.153-3.413-36.15-10.085-53.372l-1.862-4.965z" />
<glyph unicode="&#xe91d;" glyph-name="diver" d="M717.917 440.553l-70.749 26.624 51.572 84.154c11.357 18.618 14.895 40.588 9.681 61.999s-18.246 39.471-36.864 50.828c-25.135 15.453-56.413 16.012-81.92 2.048l-3.165 2.048c-10.612 6.889-23.273 9.309-35.747 6.516-12.474-2.607-23.087-10.054-29.975-20.666l-106.868-164.957c-6.889-10.612-9.123-23.273-6.516-35.747s10.054-23.087 20.666-29.975v0s-8.751-14.522-8.751-14.522c-5.772-9.309-9.495-19.549-10.985-30.348l-98.118-95.511-117.481 31.279c-8.564 4.655-18.246 7.075-26.996 6.703l-156.207 5.399 3.724-129.024 145.036 15.267 148.201-39.471c26.81-7.075 54.365 2.048 67.584 22.342l68.887 67.025 3.351-78.010-147.456-29.044c-15.081-2.979-28.486-10.612-36.864-20.294-1.676-1.489-3.165-2.979-3.91-3.91l-111.523-109.475 96.070-86.202 90.298 117.295 169.798 33.513c2.42 0.559 4.841 1.117 7.075 1.862 26.81 4.468 46.732 32.023 45.242 63.488l-6.889 157.696c4.096 4.282 7.82 8.937 10.799 13.964l37.609 61.44 87.692-33.14c11.916-4.468 24.762-4.096 36.305 1.117s20.48 14.708 24.948 26.438c4.468 11.916 4.096 24.762-1.117 36.305s-14.708 20.48-26.438 24.948zM719.407 389.167c-1.862-4.841-5.399-8.751-10.24-10.985s-10.054-2.42-14.895-0.559l-109.289 41.332-49.711-81.175c-2.793-4.655-6.33-8.751-10.426-12.474l-5.027-4.468 7.447-170.729c0.745-17.501-9.309-33.14-22.528-34.816l-2.42-0.559c-1.676-0.559-3.351-0.931-5.027-1.303l-180.038-35.561-78.383-101.841-51.572 46.359 90.857 89.367s1.489 1.489 3.537 3.537c5.399 6.33 13.405 10.799 22.342 12.474l170.915 33.699-7.075 164.399-114.874-111.709-2.234-2.793c-6.33-10.612-21.969-15.453-37.423-11.357l-153.228 40.774-120.087-12.66-2.048 69.26 127.348-4.282c5.213 0 10.054-1.117 14.522-3.724l138.147-37.236 116.736 113.571 0.372 5.213c0.745 8.378 3.351 16.384 7.633 23.459l16.012 26.252 6.144 13.591-13.219 6.889-8.937 5.772c-4.282 2.793-7.447 7.261-8.564 12.288-1.117 5.213 0 10.426 2.607 14.708l106.868 164.957c4.468 6.889 12.474 10.054 20.108 8.564l-50.455-84.154c-3.91-6.516-1.862-15.267 4.841-19.177 2.234-1.303 4.655-2.048 7.075-2.048 4.655 0 9.309 2.42 11.916 6.703l50.455 84.154 0.931-0.559 8.192 5.772c17.687 12.474 41.146 13.405 59.578 2.048 12.288-7.447 20.852-19.363 24.204-33.513s1.117-28.672-6.33-40.774l-69.073-112.826 102.214-38.54c4.841-1.862 8.751-5.399 10.799-10.24s2.42-10.054 0.559-14.895zM713.449 830.79c-44.87 0-81.548-36.492-81.548-81.548s36.492-81.548 81.548-81.548c17.873 0 35.002 5.772 49.152 16.384l56.599-16.384v149.876l-44.311-14.895c-15.453 17.687-37.609 27.927-61.44 27.927zM659.828 749.242c0 29.603 24.017 53.62 53.62 53.62 10.799 0 20.852-3.537 29.603-9.309v-88.623c-8.751-5.772-18.991-9.123-29.603-9.123-29.603 0-53.62 24.017-53.62 53.62zM791.273 704.931l-20.294 5.772v61.068l20.294 6.703v-73.728zM880.454 899.305c-22.9 0-41.519-18.618-41.519-41.519s18.618-41.519 41.519-41.519c22.9 0 41.332 18.618 41.519 41.519 0 22.9-18.618 41.519-41.519 41.519zM880.454 838.609c-10.612 0-19.363 8.564-19.363 19.363 0 10.612 8.564 19.363 19.363 19.363v0c10.612 0 19.363-8.751 19.363-19.363s-8.564-19.363-19.363-19.363zM966.097 960c-22.9 0-41.519-18.618-41.519-41.519s18.618-41.519 41.519-41.519c22.9 0 41.332 18.618 41.519 41.519 0 22.9-18.618 41.519-41.519 41.519zM966.097 899.305c-10.612 0-19.363 8.564-19.363 19.363 0 10.612 8.564 19.363 19.363 19.363v0c10.612 0 19.363-8.564 19.363-19.363 0-10.612-8.564-19.363-19.363-19.363z" />
<glyph unicode="&#xe91e;" glyph-name="doctor" d="M1019.835-21.652c-2.951 10.066-73.068 247.496-108.127 325.077-33.323 74.283-223.197 80.705-287.588 80.705h-2.951v56.927c0 3.818-1.562 7.116-3.818 9.719 84.176 41.654 142.666 130.343 142.666 233.264 0 142.666-112.119 258.603-249.925 258.603s-249.925-115.938-249.925-258.603c0-102.747 58.489-191.609 142.666-233.264-2.256-2.777-3.818-6.075-3.818-9.719v-56.927h-2.951c-64.391 0-254.264-6.422-287.588-80.705-34.712-77.755-104.83-315.010-107.78-325.077-2.43-8.331 2.256-17.009 10.587-19.439 1.388-0.347 2.951-0.694 4.339-0.694 6.769 0 13.017 4.339 14.926 11.281 0.694 2.43 72.548 245.413 106.565 321.258 11.976 26.555 63.349 43.043 123.054 52.415v-196.296c-13.017-3.124-24.125-9.372-32.803-15.273-26.034-17.356-38.877-43.737-36.274-74.283 0.694-8.157 0.521-16.662 0.347-25.513 0-5.554-0.174-10.934 0-16.488 0.347-27.075 11.108-37.836 38.183-38.357 2.256 0 4.513 0 6.595 0 1.909 0 3.645 0 5.554 0h5.38c8.678 0 15.62 6.942 15.62 15.62s-6.942 15.62-15.62 15.62h-5.554c-3.818 0-7.463 0-11.455 0-3.818 0-5.901 0.347-7.289 0.521-0.174 1.215-0.521 3.471-0.521 7.116 0 5.207 0 10.24 0 15.447 0.174 9.372 0.347 19.092-0.521 28.811-1.562 19.265 5.901 34.538 22.563 45.646 19.265 12.843 33.497 14.926 48.944 7.116 24.298-12.149 35.233-29.332 35.753-55.886 0.174-12.843 0.174-25.513 0-38.357 0-5.033-0.347-8.157-0.694-9.893-2.43-0.347-5.901-0.521-9.025-0.694h-1.388c-8.678-0.521-14.405-7.984-13.885-16.488 0.521-8.678 8.852-15.273 17.182-14.579 27.075 1.562 38.53 7.637 39.051 41.134 0.174 13.191 0.174 26.207 0 39.398-0.694 38.009-18.397 65.953-52.936 83.308-5.554 2.777-10.934 4.513-16.315 5.727v200.635c35.406 3.992 72.027 5.727 103.615 5.727-1.736-6.942 1.041-14.405 7.637-17.703l91.466-46.861c2.256-1.215 4.686-1.736 7.116-1.736 2.256 0 4.339 0.521 6.422 1.388l104.136 46.861c6.942 3.124 10.24 10.761 8.504 18.050 17.529 0 36.621-0.347 56.233-1.388v-205.494c0-1.215 0.521-2.43 0.694-3.471-30.199-6.769-52.762-33.671-52.762-65.953 0-37.315 30.373-67.688 67.688-67.688s67.688 30.373 67.688 67.688c0 32.108-22.563 59.010-52.762 65.953 0.347 1.215 0.694 2.256 0.694 3.471v203.412c79.664-6.942 159.848-24.645 175.121-58.663 34.018-75.845 105.871-318.655 106.565-321.085 2.083-6.769 8.157-11.281 14.926-11.281 1.388 0 2.951 0.174 4.339 0.694 8.331 2.43 13.017 11.108 10.587 19.439zM510.264 911.403c97.887 0 181.022-67.341 208.792-159.675h-72.721l-123.227 34.191c-2.603 0.694-5.207 0.694-7.81 0l-140.757-34.191h-73.068c27.769 92.334 110.904 159.675 208.792 159.675zM291.58 684.041c0 12.496 1.215 24.472 3.124 36.447h81.746c1.215 0 2.43 0 3.645 0.521l138.674 33.671 121.318-33.671c1.388-0.347 2.777-0.521 4.165-0.521h81.746c1.909-11.976 3.124-23.951 3.124-36.447 0-125.31-98.061-227.363-218.685-227.363s-218.685 102.053-218.685 227.363zM501.934 319.566l-75.498 38.704c2.43 2.777 3.992 6.248 3.992 10.066v70.812c25.166-8.852 51.894-13.711 79.837-13.711s54.671 5.033 79.837 13.711v-70.812c0-2.951 1.041-5.554 2.603-7.984l-90.598-40.786zM728.776 76.583c0-20.133-16.315-36.447-36.447-36.447s-36.447 16.315-36.447 36.447 16.315 36.447 36.447 36.447 36.447-16.315 36.447-36.447z" />
<glyph unicode="&#xe91f;" glyph-name="document-boxes" d="M252.245 785.92h-153.6c-6.656 0-11.947-5.291-11.947-11.947v-153.6c0-6.656 5.291-11.947 11.947-11.947h153.6c6.656 0 11.947 5.291 11.947 11.947v153.6c0 6.656-5.291 11.947-11.947 11.947zM240.299 632.32h-129.707v129.707h129.707v-129.707zM252.245 529.92h-153.6c-6.656 0-11.947-5.291-11.947-11.947v-153.6c0-6.656 5.291-11.947 11.947-11.947h153.6c6.656 0 11.947 5.291 11.947 11.947v153.6c0 6.656-5.291 11.947-11.947 11.947zM240.299 376.32h-129.707v129.707h129.707v-129.707zM252.245 273.92h-153.6c-6.656 0-11.947-5.291-11.947-11.947v-153.6c0-6.656 5.291-11.947 11.947-11.947h153.6c6.656 0 11.947 5.291 11.947 11.947v153.6c0 6.656-5.291 11.947-11.947 11.947zM240.299 120.32h-129.707v129.707h129.707v-129.707zM316.075 239.445h316.757v-28.331h-316.757v28.331zM316.075 168.789h316.757v-28.331h-316.757v28.331zM0-48.469h758.272v999.936h-758.272v-999.936zM34.816 916.651h688.64v-930.304h-688.64v930.304zM316.075 497.152h316.757v-28.331h-316.757v28.331zM316.075 426.496h316.757v-28.331h-316.757v28.331zM316.075 737.792h316.757v-28.331h-316.757v28.331zM316.075 667.136h316.757v-28.331h-316.757v28.331zM1003.179 649.899h-145.067c-8.533 0-15.36-6.827-15.36-15.36v-541.013c0-1.877 0.512-3.584 1.024-5.291 0-0.512 0.341-0.853 0.512-1.195s0.341-0.853 0.512-1.195l70.656-121.515c2.731-4.608 7.68-7.509 13.141-7.68h0.171c5.291 0 10.24 2.731 13.141 7.339l74.411 121.515s0.341 1.024 0.683 1.365c0.171 0.341 0.341 0.853 0.512 1.195 0.683 1.707 1.024 3.413 1.024 5.291 0 0 0 0 0 0v541.013c0 8.533-6.827 15.36-15.36 15.36zM873.472 517.291h114.347v-408.405h-114.347v408.405zM873.472 619.179h114.347v-71.168h-114.347v71.168zM929.109 1.877l-44.203 76.288h90.965l-46.763-76.288z" />
<glyph unicode="&#xe920;" glyph-name="document-checks" d="M446.009 263.68h351.953v-31.479h-351.953v31.479zM446.009 185.173h351.953v-31.479h-351.953v31.479zM94.815 960v-1016.225h842.524v1016.225h-842.524zM898.655-17.541h-765.156v938.856h765.156v-938.856zM446.009 493.132h351.953v-31.479h-351.953v31.479zM446.009 414.625h351.953v-31.479h-351.953v31.479zM446.009 722.584h351.953v-31.479h-351.953v31.479zM446.009 644.077h351.953v-31.479h-351.953v31.479zM272.877 600.083l88.557 84.575c3.224 3.034 5.12 7.206 5.12 11.757s-1.517 8.723-4.741 12.136c-6.447 6.637-17.067 6.827-23.893 0.379l-64.284-61.44-25.6 26.548c-6.447 6.447-16.877 6.637-23.893 0.379-3.224-3.034-5.12-7.206-5.12-11.757s1.517-8.723 4.741-11.947l48.924-50.441zM338.11 482.323l-64.284-61.44-25.6 26.548c-6.447 6.258-16.877 6.447-23.893 0.379-3.224-3.034-5.12-7.206-5.12-11.757s1.517-8.723 4.741-11.947l48.924-50.631 88.557 84.575c6.637 6.447 7.016 17.067 0.379 23.893-6.447 6.637-17.067 6.827-23.893 0.379zM272.877 146.868l88.557 84.575c3.224 3.034 5.12 7.206 5.12 11.757s-1.517 8.723-4.741 12.136c-6.447 6.637-17.067 6.827-23.893 0.379l-64.284-61.44-25.6 26.548c-6.447 6.447-16.877 6.637-23.893 0.379-3.224-3.034-5.12-7.206-5.12-11.757s1.517-8.723 4.741-12.136l48.924-50.441z" />
<glyph unicode="&#xe921;" glyph-name="document-lens" d="M986.112 209.262l-136.046 97.573v653.166h-732.014v-97.573h-96.11v-932.718h732.16v97.28h95.963v146.578l72.997-52.224c9.216-6.583 20.187-10.094 31.598-10.094 17.701 0 34.085 8.485 43.886 22.674 17.262 24.283 11.703 57.929-12.434 75.337zM680.521 402.066v0c-7.168-15.36-15.945-29.696-26.185-42.715 0 0 0 0 0 0-3.365-4.389-6.875-8.485-10.679-12.581-41.106-44.325-99.035-69.778-158.866-69.778-118.93 0-215.625 96.695-215.625 215.625s96.695 215.625 215.625 215.625 215.625-96.695 215.625-215.625c0-31.451-6.875-62.757-19.895-90.551zM717.531-33.573h-659.017v859.429h59.538v-798.866h599.479v-60.709zM813.495 63.707h-658.871v859.721h658.871v-590.409l-94.208 67.584c11.41 28.965 17.701 60.416 17.701 92.014 0 138.971-113.225 252.197-252.197 252.197s-252.197-113.079-252.197-252.197 113.079-252.197 252.197-252.197c64.512 0 126.976 25.454 173.934 70.217l154.77-110.885v-136.046zM968.704 155.136v-0.293c-5.266-7.461-16.677-9.216-24.43-3.657l-260.389 186.661c3.657 4.681 7.168 9.655 10.533 14.629 0.293 0.439 0.585 1.024 0.878 1.463 2.779 4.389 5.559 8.631 8.192 13.166l146.725-105.179s114.688-82.213 114.688-82.213c7.899-5.705 9.655-16.53 3.95-24.43zM618.789 586.094c8.338-8.631 8.046-22.382-0.585-30.72l-167.79-160.183-30.427 31.159-58.807 60.855c-8.338 8.631-8.046 22.382 0.585 30.72s22.528 8.046 30.866-0.585l58.953-60.855 136.192 130.048c8.631 8.338 22.528 8.046 30.866-0.585z" />
<glyph unicode="&#xe922;" glyph-name="documents" horiz-adv-x="823" d="M95.497 960v-96.935h-95.497v-927.065h727.587v96.647h95.497v927.353h-727.587zM691.344 32.791v-60.404h-655.101v854.436h59.254v-794.031h595.847zM786.697 923.757v-854.724h-654.957v854.724h654.957zM213.142 508.117h515.452v-36.243h-515.452v36.243zM213.142 675.092h515.452v-36.243h-515.452v36.243zM213.142 344.162h515.452v-36.243h-515.452v36.243z" />
<glyph unicode="&#xe923;" glyph-name="download-report" d="M938.453 669.44c0 1.707-0.427 3.2-0.853 4.907-0.213 0.853-0.64 1.707-0.853 2.347-0.64 1.28-1.493 2.56-2.347 3.84-0.427 0.64-1.067 1.493-1.707 2.133-0.213 0.213-0.427 0.64-0.853 1.067l-120.32 110.933c-25.813 26.453-51.627 52.907-71.253 73.387-84.693 87.040-92.587 95.147-104.32 91.093h-438.4c-61.867 0-112.213-50.133-112.213-112v-792.533c0-61.867 50.347-112.213 112.213-112.213h628.907c61.867 0 112.213 50.347 112.213 112.213v613.12s-0.213 1.067-0.213 1.493zM661.333 875.093l120.32-111.147c32.213-33.067 56.533-57.173 74.667-74.88h-167.68c-15.147 0-27.52 12.373-27.52 27.307v158.72zM896 54.613c0-38.4-31.147-69.547-69.547-69.547h-628.907c-38.4 0-69.547 31.147-69.547 69.547v792.533c0 38.4 31.147 69.547 69.547 69.547h421.12v-200.107c0-38.613 31.36-69.973 70.187-69.973h207.147v-591.787zM420.053 370.347c22.187-23.467 45.013-47.573 68.267-70.827 8.747-8.747 20.267-13.653 32.853-13.653s24.107 4.907 32.853 13.653c23.253 23.253 46.080 47.573 68.267 70.827l19.2 20.267c4.48 4.693 6.827 10.88 6.613 17.28 0 6.4-2.773 12.587-7.467 16.853-9.813 9.173-24.96 8.747-34.347-0.853l-19.413-20.48c-13.653-14.293-27.52-29.013-41.6-43.52v300.16c0 13.44-10.88 24.32-24.32 24.32s-24.32-10.88-24.32-24.32v-300.16c-14.080 14.507-27.947 29.013-41.6 43.52l-19.413 20.48c-9.173 9.6-24.533 10.027-34.347 0.853-4.693-4.48-7.467-10.88-7.467-17.493 0-6.187 2.347-12.16 6.613-16.64l19.413-20.48zM362.667 237.867c-11.733 0-21.333-9.6-21.333-21.333s9.6-21.333 21.333-21.333h320c11.733 0 21.333 9.6 21.333 21.333s-9.6 21.333-21.333 21.333h-320z" />
<glyph unicode="&#xe924;" glyph-name="download-rounded-bold" d="M512 960c-282.837 0-512-229.163-512-512s229.163-512 512-512 512 229.163 512 512-229.308 512-512 512zM300.198 522.362c10.995 10.995 28.79 10.995 39.641 0l143.95-143.95v293.253c0 15.48 12.587 28.067 28.067 28.067s28.067-12.587 28.067-28.067v-293.398l143.95 143.95s0 0 0 0c10.995 10.995 28.79 10.851 39.641 0s10.995-28.79 0-39.641l-191.837-191.837s0 0 0 0c-10.995-10.995-28.79-10.851-39.641 0l-191.982 191.982c-10.995 10.995-10.995 28.79 0 39.641zM703.982 196.268h-383.819c-15.48 0-28.067 12.587-28.067 28.067s12.587 28.067 28.067 28.067h383.819c15.48 0 28.067-12.587 28.067-28.067s-12.587-28.067-28.067-28.067z" />
<glyph unicode="&#xe925;" glyph-name="drop-tube" d="M623.881-22.85h2.086c8.913 0 22.566 0.379 36.219 3.413 55.372 12.326 94.436 45.511 116.433 98.797 2.844 7.016-0.569 15.17-7.585 18.015-3.413 1.327-7.206 1.327-10.619 0s-6.068-4.172-7.585-7.585c-18.584-44.942-50.252-71.87-96.901-82.299-10.999-2.465-21.807-2.655-30.151-2.655h-2.086c-7.585 0-13.843-6.258-13.843-13.843s6.068-13.843 13.843-14.033zM811.046 224.047c-12.705 41.908-112.071 206.127-149.428 247.656l-5.31 5.879c-9.102 10.24-15.17 17.067-25.6 17.446-9.671 0-15.929-6.447-25.41-16.308l-6.447-6.447c-2.086-1.896-3.603-3.982-4.361-5.689-1.138-1.517-2.844-3.793-5.31-6.637l-0.948-1.327c-14.222-18.204-47.028-59.544-77.748-108.089v473.505c0 2.276-0.19 4.551-0.759 7.016h26.738c7.585 0 13.843 6.258 13.843 13.843v101.262c0 7.585-6.258 13.843-13.843 13.843h-332.99c-7.585 0-13.843-6.258-13.843-13.843v-101.262c0-7.585 6.258-13.843 13.843-13.843h26.738c-0.569-2.465-0.759-4.741-0.759-7.016v-765.724c0-60.681 49.493-110.175 110.175-110.175h58.406c38.116 0 73.007 18.963 94.056 51.010 13.653-13.274 29.393-25.41 47.028-36.030 26.169-15.55 54.993-23.514 85.713-23.514 16.119 0 33.185 2.276 50.252 6.637 41.719 10.619 77.748 32.616 104.296 63.905 24.462 28.824 39.253 61.44 43.994 97.090 4.741 35.461 0.759 73.576-12.516 116.622zM476.539 221.393c2.655 8.344 6.068 17.446 10.619 27.876 6.258 14.601 14.033 30.341 22.945 46.459 35.081 63.716 82.11 123.070 99.935 145.446 3.413 4.172 6.258 7.775 7.964 10.619l7.206 7.396c1.896 1.896 3.793 3.982 5.499 5.499 1.517-1.707 3.224-3.603 5.12-5.689l5.499-6.068c35.081-38.874 131.603-198.353 143.55-237.037 12.136-39.633 15.739-73.007 11.378-104.865-4.172-30.341-16.687-58.216-37.736-82.868-22.756-26.738-53.855-45.89-89.884-54.993-42.667-10.809-81.351-6.258-114.916 13.843-19.342 11.567-35.84 24.841-49.493 39.822-6.637 7.396-12.705 15.17-17.825 23.324-28.634 45.701-31.858 103.159-9.671 171.046zM257.138 403.437v420.599c0 3.793 3.034 7.016 7.016 7.016h211.627c3.793 0 7.016-3.034 7.016-7.016v-420.599h-225.659zM257.138 375.751h225.47v-72.439c-14.222-26.548-25.221-51.2-32.427-73.387-27.307-83.437-19.532-153.6 22.566-208.972-14.791-27.876-43.236-45.132-74.714-45.132h-58.406c-45.511 0-82.489 36.978-82.489 82.489v317.44zM522.43 932.314v-73.576h-305.114v73.576h305.114z" />
<glyph unicode="&#xe926;" glyph-name="ear-audiometry" d="M701.44 905.956c-65.612 42.856-138.050 60.302-215.609 51.959-119.846-12.895-208.403-73.197-263.206-179.010-4.361-8.533-4.551-16.308-4.551-22.187 0-1.517 0-3.224 0-4.741-0.948-9.102 5.499-17.067 14.601-18.204 8.913-0.948 17.067 5.499 18.204 14.601 0.379 2.655 0.379 5.31 0.379 7.964 0 3.793 0 5.879 0.948 7.396 49.114 95.573 128.948 149.807 237.227 161.564 69.594 7.585 135.016-8.154 193.991-46.839 116.243-75.852 166.684-218.833 125.345-355.745-18.584-61.63-57.458-110.744-92.919-150.566-14.601-16.308-30.341-32.237-45.701-47.787-17.067-17.256-34.892-35.081-51.39-54.044-47.597-54.803-77.179-119.277-101.073-175.407-22.376-52.527-46.459-83.437-80.593-103.538-56.32-33.185-112.45-33.564-166.874-1.327-51.769 30.72-77.369 79.455-76.231 144.877 0 9.102-7.016 16.498-16.119 16.687-9.292 0.379-16.498-7.016-16.687-16.119-1.517-76.99 30.53-137.102 92.35-173.701 32.047-18.963 65.043-28.444 98.418-28.444s68.267 9.861 101.831 29.582c51.39 30.151 77.179 79.455 94.056 118.898 28.444 66.75 55.561 120.794 95.763 166.684 15.739 18.015 32.996 35.461 49.873 52.338 15.55 15.739 31.858 32.047 47.028 48.924 37.926 42.477 79.455 95.194 99.935 162.892 45.511 150.945-10.24 308.717-138.999 392.723zM279.135 283.781c3.603 8.344 0 18.015-8.344 21.618s-18.015 0-21.618-8.344l-2.276-5.12c-7.775-17.446-16.687-37.357-13.084-62.199 5.879-40.391 44.373-73.956 82.679-73.956 2.276 0 4.361 0 6.637 0.379 40.391 4.172 67.698 26.548 78.696 64.853 5.499 18.584 10.43 32.047 16.498 44.184 10.43 21.049 28.065 33.754 57.268 41.339l9.861 2.465c21.239 5.31 43.046 10.809 62.767 24.273 48.166 32.616 74.904 80.593 80.024 142.791 6.068 75.473-22.945 135.775-86.471 179.2-39.253 26.927-86.092 36.030-139.378 27.117l-6.258-1.138c-7.016-1.327-12.326-2.465-17.256-1.138-0.569 0-0.948 0-1.327 0.19-0.379 16.687 8.723 31.479 22.566 47.407 35.461 41.15 88.178 60.113 140.895 51.010 52.338-9.102 95.384-44.942 115.105-96.142 7.016-18.204 10.43-35.271 10.24-51.959 0-9.102 7.206-16.498 16.308-16.498v0c9.102 0 16.308 7.206 16.498 16.308 0 21.049-3.982 42.098-12.516 64.095-23.893 62.009-76.231 105.624-140.136 116.622-64.284 11.188-128.379-11.947-171.425-62.009-17.067-19.911-35.081-46.839-29.203-81.161-1.138-1.327-1.896-2.465-2.655-3.413-18.773-25.41-12.895-51.959-8.154-73.197l1.138-4.741c4.361-19.911 12.895-48.924 36.788-71.87 0.569-1.138 0-5.499 0-8.154-0.379-4.741-0.948-10.24 0-16.308 1.517-8.913 10.050-14.981 18.963-13.464s14.981 10.050 13.464 18.963c-0.379 1.707 0 4.741 0.379 7.775 0 1.138 0.19 2.465 0.379 3.982 4.361 0 8.913-0.379 13.464-1.327 9.292-2.086 16.498-7.206 20.29-14.412 3.982-7.585 4.172-17.067 0.379-26.359-6.447-16.119-17.446-21.428-42.287-20.29-9.292 0.759-16.687-6.637-17.067-15.739s6.637-16.687 15.739-17.067c2.276 0 4.741 0 7.206 0 23.514 0 52.717 5.879 66.939 41.15 7.396 18.584 6.827 37.736-1.707 54.044-8.344 15.929-23.514 26.927-42.287 31.099-10.619 2.276-21.239 2.655-31.668 1.327-12.895 12.516-21.049 29.203-26.359 54.044l-1.138 4.93c-4.551 20.48-7.016 33.754 2.465 46.459 0.948 1.327 1.707 2.086 2.086 2.655 11.757-2.844 22.187-0.759 30.72 0.948l5.31 0.948c45.132 7.585 82.868 0.379 115.295-21.807 53.665-36.788 77.369-85.713 72.249-149.428-4.172-52.527-25.6-91.212-65.612-118.329-14.981-10.24-33.185-14.791-52.338-19.532l-10.24-2.655c-38.116-9.861-63.905-29.013-78.507-58.596-8.723-17.825-14.601-35.84-18.584-49.683-7.396-25.41-23.514-38.495-50.631-41.339-23.135-2.465-49.683 20.101-53.476 45.511-2.276 15.36 3.793 28.634 10.619 43.804l2.276 5.31z" />
<glyph unicode="&#xe927;" glyph-name="earphones-noise" d="M566.338 430.658v0.33c-8.093 14.204-21.141 24.609-36.996 29.234s-32.537 2.643-46.906-5.285c-10.24-5.615-18.663-14.039-24.279-24.444l-103.226-188.945c-7.928-14.534-9.579-31.215-4.955-46.906 4.625-15.855 15.195-28.903 29.729-36.666 9.084-4.955 19.324-7.597 29.729-7.597l206.452 3.468c16.516 0.33 31.876 6.937 43.272 18.828s17.507 27.417 17.342 43.933c-0.165 9.91-2.808 19.819-7.597 28.738l-102.4 185.476zM645.12 206.039c-2.477-7.763-7.928-14.534-15.030-18.333-4.459-2.477-9.579-3.799-14.865-3.964l-206.121-3.468c-17.507 0-31.876 14.204-31.876 31.876 0 5.285 1.321 10.57 3.964 15.195l103.226 189.11c5.45 10.24 16.021 16.516 27.582 16.516h1.652c11.066-0.33 21.141-6.606 26.426-16.351l102.4-185.476c4.129-7.267 5.12-16.186 2.643-24.114v-0.661s-0.165 0-0.165 0zM513.486 253.935v0s-1.652 0-1.652 0h-2.147s0-0.165 0-0.165c-3.799-0.495-7.102-2.312-9.745-5.12-2.973-3.138-4.625-7.432-4.459-11.726 0.33-8.588 7.432-15.525 16.186-15.855 9.084 0 16.351 7.432 16.351 16.681 0 8.423-6.441 15.195-14.699 16.186zM497.020 362.089l29.233 0.066 0.214-94.472-29.233-0.066-0.214 94.472zM1021.688 307.943c-2.312 20.48-11.726 37.657-27.912 51.035-21.306 17.342-42.116 29.564-63.752 37.326-10.57 3.799-20.975 6.441-31.711 8.258v103.061c0 213.058-173.419 386.312-386.477 386.312s-386.312-173.254-386.312-386.477v-103.061c-10.57-1.817-20.975-4.459-31.711-8.258-21.636-7.763-42.612-19.985-63.752-37.326-16.186-13.213-25.6-30.39-27.912-51.035-2.147-18.168-2.147-36.335-2.147-54.008v-5.285c0-3.634 0-7.267 0.495-11.231 1.652-22.297 4.459-42.446 8.588-61.77 6.441-30.059 15.855-59.458 28.077-87.205 3.468-8.093 8.093-17.342 15.525-25.6 10.57-11.726 24.279-20.15 40.795-24.939l2.643-0.826c16.186-4.79 36.335-10.735 55.494-10.24 8.588-0.661 16.681 0 24.774 0.826 3.799 0.33 7.432 1.156 11.231 1.982l4.294 0.826c3.964 0.661 8.093 1.652 12.222 2.808 9.414-16.846 26.921-24.279 40.299-24.279h0.826c26.261 0.495 46.575 19.985 48.227 46.41v3.303c0 1.817-0.165 4.129-0.661 6.276-4.129 22.462-7.928 45.585-11.231 67.055-1.486 9.249-3.138 18.498-4.79 28.077-1.652 9.249-3.303 18.498-4.79 27.912l-0.826 5.781c-3.138 19.985-6.441 40.795-10.075 61.11-1.321 7.432-2.477 14.699-3.634 22.132l-4.955 30.39c-1.156 6.111-2.147 12.222-2.973 18.333-1.982 13.378-4.294 26.921-6.276 38.483v0.826c-1.982 10.901-3.964 22.132-5.45 33.197-1.817 15.195-8.919 27.912-19.819 36.005-10.405 7.763-23.783 10.901-37.492 8.423-7.102-1.156-13.874-4.294-19.819-8.919v73.992c0 193.569 157.564 351.133 351.133 351.133s351.298-157.564 351.298-351.298v-73.992c-5.946 4.625-12.717 7.763-19.819 8.919-13.874 2.312-27.086-0.661-37.492-8.423-10.901-8.093-18.003-20.975-19.819-36.005-1.321-11.396-3.468-22.792-5.45-34.023-2.147-12.387-4.459-25.435-6.276-38.483-0.991-6.276-1.982-12.717-3.303-19.489l-4.459-27.417c-1.321-7.928-2.477-16.021-3.964-23.948-3.799-20.81-7.102-42.281-10.075-61.11l-0.826-5.781c-1.321-8.754-2.973-17.507-4.459-26.095l-0.33-1.817c-1.652-9.414-3.303-18.663-4.79-28.077-3.303-21.306-7.102-44.263-11.231-67.055-0.33-1.982-0.495-3.964-0.661-7.432v-1.156s0-0.991 0-0.991c1.652-26.261 21.966-45.75 48.227-46.41h0.826c13.543 0 30.885 7.597 40.299 24.279 4.294-1.156 8.258-1.982 12.222-2.808l4.294-0.826c3.799-0.826 7.432-1.486 11.231-1.982 7.928-0.826 16.186-1.486 23.783-0.826 21.801 0 42.446 6.111 59.293 10.901 16.516 4.79 30.225 13.213 40.795 24.939 7.432 8.258 12.057 17.507 15.525 25.6 12.222 27.747 21.636 57.146 28.077 87.205 4.129 19.324 6.937 39.639 8.588 61.77 0.33 4.129 0.495 7.763 0.495 11.231v5.285c0 17.507 0 35.675-1.982 54.008zM988.655 253.935v-5.45c0-2.973 0-5.781-0.33-8.754-1.486-20.645-4.129-39.308-7.928-57.146-5.946-27.747-14.699-54.834-25.93-80.434-2.477-5.781-5.45-11.561-9.414-16.021-6.276-6.937-14.369-11.726-24.609-14.865-15.36-4.459-32.702-9.579-50.87-9.579-5.781-0.33-11.561 0-18.663 0.826-2.312 0.165-4.79 0.661-7.597 1.321l-5.12 0.991c-2.808 0.495-6.111 1.321-9.745 2.312l50.209 304.227c12.883-0.661 25.6-3.303 39.639-8.258 17.837-6.276 35.179-16.681 53.182-31.381 8.919-7.432 14.039-16.516 15.36-27.747 1.817-16.351 1.817-32.702 1.817-50.044zM765.357 58.385c3.964 21.471 7.432 42.612 11.396 67.881 1.486 9.084 2.973 18.168 4.625 27.252v0.495c1.817 9.414 3.468 18.663 4.955 28.077l0.826 5.781c3.138 19.819 6.276 40.299 9.91 60.449 1.486 8.258 2.808 16.516 3.964 24.774l4.459 26.756c1.156 6.772 2.477 13.708 3.468 20.645 1.817 12.883 4.129 25.6 6.111 37.657 1.982 11.561 4.129 23.453 5.615 35.51 0.661 5.45 2.808 9.745 5.946 12.222 1.982 1.486 4.459 2.312 7.267 2.312 0.991 0 2.147 0 3.303-0.33 2.477-0.33 4.955-2.147 6.937-4.955 2.312-3.138 2.808-6.276 2.477-7.432l-11.561-69.368-1.156-8.093s-42.777-259.468-42.777-259.468c-0.33-1.817-0.826-3.799-1.321-5.615-2.312-7.267-8.754-9.414-10.405-9.084h-0.33c-7.763 0.165-13.048 5.12-13.874 12.552v1.982zM232.547 58.385l-42.942 259.634 0.495-0.495-13.213 77.791c-0.165 1.156 0.33 4.294 2.477 7.432 1.982 2.808 4.459 4.625 6.937 4.955 4.294 0.661 7.928 0 10.735-1.982 3.138-2.312 5.285-6.606 5.946-12.222 1.486-12.057 3.634-24.114 5.615-35.84 1.982-11.231 4.294-24.279 6.111-37.326 0.991-6.937 2.312-14.039 3.468-20.48l4.459-27.252c1.321-8.093 2.477-16.186 3.964-24.279 3.634-20.15 6.772-40.63 9.91-60.449l0.826-5.781c1.486-9.414 3.138-18.663 4.79-28.077v-1.156c1.817-8.919 3.468-17.837 4.79-26.756 2.973-18.498 6.937-42.942 11.396-68.872v-0.661c-0.661-7.763-5.946-12.552-13.874-12.717-2.643 0-8.588 2.147-10.735 8.919-0.661 1.817-0.991 3.799-1.321 5.615zM145.342 371.2l50.209-304.062c-3.634-0.991-6.772-1.652-9.745-2.312l-5.615-1.156c-2.477-0.495-4.79-0.991-7.102-1.321-7.597-0.826-13.213-1.156-20.315-0.661-16.846 0-34.023 5.12-49.383 9.579-10.24 2.973-18.333 7.928-24.609 14.865-4.129 4.459-6.937 10.405-9.414 16.021-11.231 25.765-19.985 52.686-25.93 80.434-3.799 17.672-6.441 36.335-7.928 57.146-0.165 2.973-0.33 5.781-0.33 8.754v5.45c0 17.342 0 33.693 1.817 49.879 1.321 11.396 6.276 20.48 15.36 27.747 18.003 14.699 35.51 25.105 53.182 31.381 13.708 4.955 26.756 7.597 39.639 8.258z" />
<glyph unicode="&#xe928;" glyph-name="ekg-heart-card" d="M245.567 21.398c0-9.66 7.728-17.389 17.389-17.389h532.866c9.66 0 17.389 7.728 17.389 17.389v92.16c0 9.66-7.728 17.389-17.389 17.389h-532.866c-9.66 0-17.389-7.728-17.389-17.389v-92.16zM280.344 96.169h498.089v-57.383h-498.089v57.383zM177.944 898.56c0 14.684 11.979 26.663 26.663 26.663h649.564c14.684 0 26.663-11.979 26.663-26.663v-265.081h34.777v265.081c0 33.811-27.629 61.44-61.44 61.44h-649.564c-33.811 0-61.44-27.629-61.44-61.44v-265.081h34.777v265.081zM880.833-9.129c0-14.684-11.979-26.663-26.663-26.663h-649.564c-14.684 0-26.663 11.979-26.663 26.663v372.118h-34.777v-372.118c0-33.811 27.629-61.44 61.44-61.44h649.564c33.811 0 61.44 27.629 61.44 61.44v372.118h-34.777v-372.118zM245.567 362.989v-84.238c0-9.66 7.728-17.389 17.389-17.389h532.866c9.66 0 17.389 7.728 17.389 17.389v84.238h-34.777v-66.85h-498.089v66.85h-34.777zM813.211 633.479v180.069c0 9.66-7.728 17.389-17.389 17.389h-532.866c-9.66 0-17.389-7.728-17.389-17.389v-180.069h34.777v162.681h498.089v-162.681h34.777zM449.594 377.286c8.694-7.728 17.582-15.263 26.469-22.798 11.013-9.274 21.832-18.741 32.652-28.208 6.762-5.989 15.263-8.888 23.765-8.888s16.229 2.705 22.798 8.308c9.854 8.501 19.707 17.002 29.368 25.503l13.331 11.592c7.342 6.376 20.287 17.389 34.777 29.754 23.765 20.287 51.2 43.665 62.986 54.291 7.149 6.376 7.728 17.389 1.352 24.537s-17.389 7.728-24.537 1.352c-11.592-10.433-38.835-33.618-62.406-53.518-14.491-12.365-27.629-23.571-34.971-29.947l-13.331-11.592c-9.66-8.501-19.321-16.809-29.947-24.924-11.013 9.66-22.026 19.128-33.232 28.788-8.694 7.535-17.389 14.877-26.083 22.412l-12.752 11.206c-13.138 11.399-26.856 23.378-39.608 35.55-6.955 6.569-17.968 6.376-24.537-0.58s-6.376-17.968 0.58-24.537c13.331-12.752 27.242-24.924 40.767-36.516l12.752-11.013zM735.155 543.638s1.739 0 2.512 0c8.501 0 15.843 6.183 17.195 14.877 3.671 24.924 0.386 50.234-9.854 75.158-14.877 35.937-41.153 60.281-76.51 70.328-45.017 12.945-85.591 1.159-117.663-33.618-5.41-5.796-12.945-14.491-18.741-25.31-14.877 24.537-32.652 41.733-54.098 52.552s-45.404 13.911-71.1 9.274c-48.882-8.694-87.716-50.427-96.604-103.366-2.125-12.752-2.512-25.31-1.546-37.675 0.966-9.66 9.66-16.423 18.934-15.65 9.66 0.966 16.616 9.274 15.65 18.934-0.773 9.274-0.386 18.934 1.159 28.788 6.376 38.642 34.005 68.782 68.395 74.965 18.548 3.285 34.584 1.352 49.461-6.183 16.229-8.115 29.368-21.446 41.346-41.926 3.478-5.796 6.955-10.433 10.82-14.104 2.318-2.125 5.023-3.864 8.308-5.217 12.365-4.637 26.469 0.193 33.618 11.979 1.932 3.091 3.864 6.376 4.444 7.728 3.285 6.955 7.922 13.911 15.65 22.026 23.185 25.117 50.234 32.845 82.5 23.765 24.924-7.149 43.085-23.958 53.905-50.041 7.922-19.128 10.433-38.255 7.728-56.996-1.352-9.467 5.217-18.355 14.684-19.707zM973.766 519.1h-354.729l-15.263 42.892c-2.512 6.955-9.081 11.592-16.423 11.592 0 0-0.386 0-0.58 0-7.535-0.193-14.104-5.217-16.229-12.558l-18.934-64.531-18.355 73.612c-1.739 7.342-8.115 12.558-15.457 13.138s-14.491-3.671-17.389-10.433l-22.798-53.518h-266.24l-33.811 64.531c-3.091 5.796-8.888 9.274-15.457 9.274v0c-6.569 0-12.558-3.864-15.457-9.66l-33.811-67.623h-66.463c-9.66 0-17.389-7.728-17.389-17.389s7.728-17.389 17.389-17.389h77.283c6.569 0 12.558 3.671 15.457 9.66l23.378 46.949 22.798-43.665c3.091-5.796 8.888-9.274 15.457-9.274h288.266c6.955 0 13.331 4.251 16.036 10.626l6.955 16.423 21.253-85.398c1.932-7.535 8.694-12.945 16.423-13.138h0.386c7.728 0 14.491 5.023 16.616 12.558l21.832 74.578 1.352-3.864c2.512-6.955 9.081-11.592 16.423-11.592h367.094c9.66 0 17.389 7.728 17.389 17.389s-7.728 17.389-17.389 17.389z" />
<glyph unicode="&#xe929;" glyph-name="ekg-heart" d="M885.925 359.639c-35.179-39.969-75.148-76.635-112.97-110.658-31.381-28.243-64.743-56.981-94.142-82.25l-5.45-4.625c-13.048-11.231-26.095-22.462-39.143-33.858-11.066-9.579-21.966-19.159-33.032-28.738-22.792-19.819-46.245-40.465-69.533-60.284-10.24-8.588-25.6-8.258-35.84 0.826-25.435 22.627-51.695 44.924-77.13 66.56l-1.817 1.486c-21.471 18.333-42.942 36.666-64.083 55.164-8.588 7.597-17.177 15.030-25.93 22.462l-4.459 3.799c-32.372 28.077-65.734 56.981-96.95 86.875-40.134 38.317-78.782 76.139-111.979 118.916-8.754 11.231-17.012 22.627-24.444 34.023-2.477 3.634-6.111 6.111-10.405 6.937s-8.588 0-12.222-2.312c-3.634-2.312-6.111-6.111-6.937-10.24-0.826-4.294 0-8.588 2.312-12.222 7.928-12.057 16.681-24.279 25.93-36.005 34.684-44.594 74.323-83.406 115.283-122.55 32.372-30.885 67.386-61.275 98.436-88.196l7.102-6.111c7.597-6.606 15.36-13.213 22.957-19.985 21.306-18.498 42.612-36.831 64.413-55.494l1.156-0.991c25.435-21.801 51.861-44.263 77.295-66.725 11.066-9.745 25.27-15.195 40.134-15.195s27.747 4.955 38.317 13.874c24.279 20.645 48.557 41.951 70.028 60.614 10.901 9.579 21.966 19.159 32.867 28.738 14.204 12.387 28.408 24.609 42.612 36.831l1.817 1.486c31.215 26.921 63.422 54.668 94.637 82.746 38.483 34.684 79.112 72.010 115.613 113.301 2.808 3.303 4.294 7.432 3.964 11.726s-2.147 8.258-5.45 11.231c-6.772 5.946-17.012 5.285-22.957-1.486zM34.188 485.822c1.817 0 3.799 0.33 5.45 0.991 8.423 2.973 12.883 12.387 9.91 20.81-17.177 48.062-21.306 96.124-12.883 146.994 17.342 103.886 91.995 185.146 185.806 201.827 50.209 9.084 94.472 3.468 135.432-17.012 43.437-21.636 79.608-58.137 110.493-111.154 7.102-12.057 14.039-21.306 21.966-28.903 2.808-2.808 6.606-5.12 10.901-6.772 18.333-6.937 39.308 0.495 49.879 18.003 7.267 11.892 8.754 15.195 9.084 16.186 8.754 19.324 21.801 37.987 42.116 60.119 62.266 67.551 137.745 89.352 224.95 64.413 68.212-19.489 117.43-65.239 146.498-135.763 25.6-62.266 29.894-125.027 12.552-186.302-2.477-8.588 2.643-17.672 11.231-19.985s17.672 2.643 19.985 11.231c19.324 68.542 14.699 138.405-13.874 207.608-33.032 80.268-89.517 132.294-167.639 154.591-99.757 28.573-186.467 3.799-257.817-73.662-22.792-24.774-37.492-45.915-47.897-68.707 0 0-1.156-2.477-7.267-12.552-2.312-3.799-6.606-5.781-10.901-4.294-5.615 5.45-10.735 12.387-16.021 21.471-34.188 58.797-74.653 99.262-124.036 123.871-47.071 23.453-98.106 29.894-155.417 19.654-107.19-19.159-192.578-111.154-212.067-228.583-9.249-55.825-4.459-110.658 14.369-163.345 2.312-6.441 8.423-10.735 15.36-10.735zM1013.099 476.243h-230.235l-29.729 111.319c-1.982 7.763-8.754 12.552-16.186 12.057-7.597-0.33-13.874-5.615-15.36-13.048l-41.786-213.223-66.23 352.95c-1.321 7.432-7.928 13.048-15.195 13.213-7.597 0.661-14.534-4.459-16.516-12.222l-62.761-251.045h-165.326l-23.948 97.61c-1.652 6.937-7.597 11.892-14.865 12.387-7.432 0.495-13.708-3.634-16.186-10.57l-36.501-99.427h-245.925c-8.919 0-16.186-7.267-16.186-16.186s7.267-16.186 16.186-16.186h256.991c6.772 0 12.883 4.294 15.195 10.57l21.966 59.954 14.204-58.302c1.817-7.267 8.258-12.387 15.855-12.387h190.761c7.432 0 14.039 5.12 15.69 12.387l47.897 191.257 68.046-363.19c1.486-7.597 8.093-13.213 16.021-13.213 7.763 0 14.534 5.45 15.855 13.048l44.594 227.262 14.865-55.494c1.817-7.102 8.258-12.057 15.69-12.057h242.787c8.919 0 16.186 7.267 16.186 16.186s-7.267 16.186-16.186 16.186z" />
<glyph unicode="&#xe92a;" glyph-name="enabled-eye" d="M1009.726 462.274v0c-8.999 11.792-225.59 288.272-499.433 288.272s-490.279-276.48-499.278-288.272l-11.016-14.274 11.016-14.274c8.999-11.792 225.59-288.272 499.433-288.272s490.279 276.48 499.433 288.272l11.016 14.274-11.016 14.274zM510.293 192c-217.678 0-405.411 202.938-450.715 256 45.304 53.062 233.193 256 450.715 256s405.411-202.938 450.715-256c-45.304-53.062-233.193-256-450.715-256zM510.293 626.424c-7.758 0-15.67-0.621-25.29-2.017l-6.672-0.931v-127.224h-139.792l-1.396-5.896c-3.568-14.274-5.275-28.548-5.275-42.356 0-98.366 80.058-178.424 178.424-178.424s178.424 80.058 178.424 178.424-80.058 178.424-178.424 178.424z" />
<glyph unicode="&#xe92b;" glyph-name="envelope" d="M43.845 131.57c-24.23 0-43.7 19.615-43.845 43.7v538.97c0 24.23 19.615 43.845 43.845 43.845h936.455c24.23 0 43.7-19.615 43.845-43.845v-538.682c0-24.23-19.615-43.7-43.845-43.845h-936.455zM79.757 183.779h864.487l-263.788 309.219-168.311-111.486-168.455 111.198-263.932-308.786zM724.3 521.988l247.346-290.037v453.877l-247.346-163.84zM52.21 232.383l247.346 289.749-247.346 163.263v-453.012zM512 444.25l395.033 261.481h-790.788l395.754-261.481z" />
<glyph unicode="&#xe92c;" glyph-name="face-mask" d="M957.44 217.79l-5.12 4.741c-9.671 7.775-86.092 70.353-106.761 87.040 9.102 19.532 14.791 40.391 17.067 61.819 1.138 9.861 31.858 245.381 33.185 259.034 3.982 33.944-0.759 68.456-13.274 100.314-9.861 24.083-20.29 48.356-30.53 71.87l-6.447 14.981c-11.757 27.686-29.013 51.959-51.010 72.439-32.996 30.341-73.766 49.493-118.139 55.372-4.741 0.759-55.941 6.637-68.077 8.154 0 0-21.239 2.276-29.772 3.413-17.446 1.896-53.665 3.034-54.424 3.034 0 0-74.335-2.276-106.572-6.258-5.689-0.759-11.567-1.517-18.204-2.465-8.913-1.327-18.015-2.655-26.738-3.224-27.117-1.327-53.665-7.016-79.076-17.067-49.114-19.721-88.367-56.889-110.933-104.676-8.344-17.446-23.514-53.096-23.514-53.096s-20.48-48.735-24.652-62.578c-6.258-21.618-8.723-43.804-7.585-66.181 0.948-15.17 32.427-260.172 36.030-282.169 2.655-18.204 7.775-35.84 15.55-52.527-17.636-14.412-89.505-73.197-107.52-88.178-8.344-6.637-13.653-16.687-14.222-27.307-0.569-7.964 0-15.929 2.086-23.893 6.447-24.462 16.498-47.597 29.772-68.836 27.307-45.511 61.819-85.713 102.4-119.656 15.17-13.653 32.427-24.652 51.2-33.185 5.879-2.465 12.136-4.172 18.773-4.93 13.084-1.138 25.79 3.413 34.892 12.136 18.394 15.36 81.351 67.129 81.351 67.129 0.759-0.948 1.707-1.896 2.465-2.844 28.444-31.668 65.801-48.356 117.57-52.907 17.446-1.138 34.892 0 51.769 3.034 31.479 4.551 60.681 18.204 84.575 39.253 4.551 3.982 8.723 8.533 12.705 13.084 0 0 0 0 0 0l86.471-70.732c6.637-5.31 14.981-8.344 24.462-8.344h0.379c13.274 0.569 26.169 4.741 37.167 11.567 21.807 12.705 41.908 28.255 59.544 45.89 40.77 37.736 73.576 82.299 97.659 132.361 8.344 16.308 13.464 33.754 15.17 51.959 1.327 11.757-2.465 23.514-10.24 32.237zM932.978 193.517c0-1.327 0-2.655 0-4.551v-2.655c0-10.24-2.465-20.67-7.396-30.341-15.36-35.65-36.219-68.267-62.199-97.47-17.446-21.239-37.357-40.391-59.164-57.268-10.619-8.344-22.376-15.55-34.702-20.859-3.034-1.327-6.068-1.896-9.292-2.276h-5.689c-1.138 7.775-0.379 15.55 1.896 22.756 6.068 20.48 15.17 39.822 27.117 57.837 25.79 41.908 58.216 78.886 96.521 110.175 10.809 8.913 22.756 16.498 35.84 22.376 4.551 2.086 9.481 3.224 14.601 3.413l2.276-1.327zM267.947 1.043c1.517-5.12 2.276-10.43 2.276-15.929v-1.896c0.379-1.517 0.19-3.224-0.379-4.551-0.948 0-2.844-0.379-6.447 0-6.637 0.948-12.895 3.413-18.963 7.016-22.376 12.705-42.477 28.824-60.302 47.597-31.858 31.668-58.406 68.077-78.886 108.089-6.068 11.757-10.809 24.273-13.653 36.788-0.948 5.689-0.948 11.378-0.19 17.067 0 0 3.413 0.569 3.982 0.569 3.982 0 7.964-1.138 11.567-2.844 13.084-6.068 25.221-14.033 36.409-23.514 40.012-32.237 73.576-70.732 99.935-114.916 0 0 18.773-34.892 24.652-53.476zM164.409 195.982v0c-12.326 10.43-25.79 19.153-40.581 25.6l47.218 38.684c12.326 10.050 24.841 20.29 36.788 30.341 5.12 3.793 11.947 3.982 18.015 0.569 14.222-6.068 27.307-14.412 39.253-24.841 46.459-37.736 83.816-84.006 111.123-137.292 5.499-10.999 9.861-22.566 12.705-34.133 0.948-4.361 1.327-8.723 1.138-13.464v-1.896s0.569-3.224-5.689-8.154c-20.67-16.687-82.489-67.129-82.489-67.129-2.465 11.567-6.258 22.756-11.757 33.185-11.947 25.79-26.738 50.252-43.994 72.628-23.514 32.047-51.010 60.871-81.73 85.902zM624.45 370.441c-2.655-0.569-5.31-0.948-7.964-1.517-7.775 12.516-16.877 24.273-26.927 34.892-10.809 11.757-23.324 21.618-37.547 29.013-12.326 6.447-25.979 9.861-40.012 10.050-15.36-0.19-30.341-4.361-43.615-12.136-19.721-11.757-36.599-27.307-49.493-45.89-3.982-5.12-7.775-10.43-11.188-16.119-30.72 5.879-112.83 32.427-120.415 36.219-16.877 8.723-28.634 24.462-32.237 43.236-0.948 5.12-24.462 185.837-25.6 199.301-1.517 17.067 1.138 34.323 7.964 49.873 10.999 25.6 22.187 51.769 34.702 80.024 12.895 31.099 40.201 54.993 72.628 63.716 10.619 2.655 80.593 10.43 80.593 10.43 28.444 3.982 57.268 6.068 87.609 6.068 24.273-0.759 49.493-1.517 74.145-4.741 0 0 47.218-6.068 65.991-7.775 18.015-0.948 36.030-5.879 51.959-14.222 20.48-11.567 37.167-29.961 46.649-51.579 12.895-29.203 24.652-56.51 35.84-83.247 7.396-18.963 9.671-39.443 6.637-59.733-1.327-13.274-17.636-136.533-18.963-146.204-1.327-10.050-2.844-20.48-3.793-31.289-1.327-25.031-16.877-47.218-39.633-57.079 0 0-101.831-30.72-106.951-31.668zM828.871 378.785s-2.844-20.859-4.361-27.686c-2.086-8.344-4.93-16.687-8.154-24.652-15.929 1.707-32.427-2.276-45.321-11.188-20.67-12.516-39.822-27.496-56.699-44.373-14.222-13.464-27.686-27.876-40.201-43.046-3.603 15.739-8.154 31.479-13.274 46.839-7.016 21.428-15.929 42.667-26.548 63.716 2.465 0.569 5.12 1.138 8.154 1.707 6.827 1.517 14.601 3.224 21.807 5.12 28.065 6.827 55.751 16.119 82.299 27.307 30.53 12.895 52.148 41.15 56.699 73.766 2.465 14.222 4.361 28.824 6.068 43.236l0.759 5.689c1.138 8.723 2.086 17.446 3.603 26.169 3.034 20.101 5.689 40.201 7.964 59.733 0.948 7.964 2.086 16.119 3.034 23.135 2.465 14.791 3.982 29.772 4.741 44.753 0.569 23.135-4.172 46.459-13.843 67.319-9.481 21.618-19.721 44.942-31.479 72.818-14.412 34.702-41.15 62.199-75.662 77.369-15.17 6.447-31.289 10.43-47.597 11.947-10.619 1.327-59.733 6.827-70.921 8.154-29.013 3.793-58.406 5.499-87.609 4.93-23.704-0.379-47.597-2.655-65.801-4.741-6.447-0.759-12.895-1.517-19.342-2.276-1.327 0-29.393-3.603-41.529-4.741-33.185-1.138-65.801-12.895-91.97-33.564-18.204-14.981-32.616-34.133-42.098-55.751-11.567-27.117-23.324-54.044-35.081-81.351-9.102-21.807-12.705-45.89-10.43-69.404 0.759-9.102 21.807-164.978 22.376-172.184 0.569-7.396 1.707-14.981 3.034-21.997 5.31-32.047 26.169-59.164 55.751-72.628 14.601-6.447 29.961-12.136 44.942-16.687l5.31-1.707c13.274-4.361 27.117-7.964 39.822-11.188l8.913-2.465c3.982-1.138 7.964-1.707 12.326-2.655l2.086-0.379c-12.895-25.031-23.514-51.39-31.289-78.317-3.224-10.619-6.258-21.239-8.723-32.047-0.759 0.948-1.707 1.896-2.465 2.844-23.893 28.824-51.39 54.613-81.92 76.61-8.723 6.068-18.015 11.188-27.496 15.17-7.206 3.224-14.981 4.741-23.135 4.93-2.465 0-4.93 0-7.396-0.569-7.396 18.584-11.757 38.116-13.084 58.216-0.569 6.447-7.585 56.51-9.292 68.646 0 0-20.48 157.582-22.945 178.062-1.896 16.308-1.707 32.996 0.569 49.114 3.603 22.187 10.43 43.615 20.48 63.716l0.759 1.707c2.844 6.637 5.689 13.464 8.533 20.101 6.637 15.929 13.653 32.237 21.428 47.976 19.342 40.581 53.286 71.68 95.384 87.419 19.911 7.206 40.96 11.567 62.388 12.705 14.601 1.327 60.302 7.206 67.319 7.964 9.481 1.138 19.153 1.896 28.824 2.465 35.271 2.465 71.111 1.896 106.193-1.517 6.068-0.759 96.332-10.619 101.073-11.378 32.806-4.551 63.905-18.204 89.505-39.253 20.29-16.498 36.599-37.736 47.407-61.44 16.119-36.030 29.393-66.181 41.339-96.521 4.741-13.084 7.775-26.738 9.102-40.581 1.707-15.929 1.138-32.047-1.327-48.356l-0.948-8.723c-2.086-16.687-30.91-234.572-31.289-237.985zM407.704 47.502v0s2.086 1.707 2.086 1.707c9.292 7.585 14.412 18.963 14.222 30.91-0.379 15.55-3.793 30.72-9.861 44.942-8.913 22.376-20.48 43.615-34.513 63.147-2.086 2.844-2.844 6.447-1.707 10.43l2.844 12.326c3.034 14.033 6.258 28.444 10.809 42.667 12.136 43.046 32.047 82.679 59.164 118.329 9.671 12.895 22.376 23.893 36.788 31.479 16.877 8.913 37.357 8.154 53.476-2.086 15.739-9.671 29.582-22.945 40.012-38.495 20.859-29.772 36.978-62.388 47.976-97.090 7.775-23.704 14.033-47.976 18.584-72.818-11.947-17.067-22.566-35.271-31.479-54.044-7.585-15.17-12.705-31.479-15.17-47.787-3.982-17.256 3.413-35.461 18.015-45.132 0.759-0.569 1.517-0.948 2.276-1.707-12.516-14.412-28.634-25.6-46.459-32.237-18.773-6.447-38.305-10.050-58.216-10.809-9.861 0-19.721 0.948-29.582 2.276l-7.585 0.948c-16.498 2.086-32.047 7.206-46.459 15.36-11.378 6.258-21.239 14.412-29.582 24.083 1.517 1.138 3.034 2.465 4.361 3.793zM636.587 99.081v0c9.671 29.582 24.083 57.079 43.236 82.11 22.756 32.047 49.683 60.871 80.213 85.713 11.378 9.671 24.083 17.636 37.736 23.704 3.793 1.707 7.964 2.655 12.895 2.655 1.707 0 3.224-0.569 4.551-1.517 21.428-17.636 44.753-36.788 71.49-58.406l14.412-11.757c-19.532-8.533-37.167-20.29-52.527-35.081-41.339-36.030-76.041-78.507-102.779-126.104-10.43-17.446-18.204-36.409-23.324-56.32l-66.181 54.234c-6.258 5.12-12.705 10.619-19.532 15.929-1.517 0.948-2.276 2.655-2.276 4.741-0.379 6.637 0.379 13.464 2.276 19.911zM409.6 184.225c0 9.292 7.396 16.687 16.687 16.687h171.994c9.292 0 16.687-7.396 16.687-16.687s-7.396-16.687-16.687-16.687h-171.994c-9.292 0-16.687 7.396-16.687 16.687zM434.631 236.373c0 9.292 7.396 16.687 16.687 16.687h121.932c9.292 0 16.687-7.396 16.687-16.687s-7.396-16.687-16.687-16.687h-121.932c-9.292 0-16.687 7.396-16.687 16.687zM434.631 131.887c0 9.292 7.396 16.687 16.687 16.687h121.932c9.292 0 16.687-7.396 16.687-16.687s-7.396-16.687-16.687-16.687h-121.932c-9.292 0-16.687 7.396-16.687 16.687z" />
<glyph unicode="&#xe92d;" glyph-name="brand-money" horiz-adv-x="1896" d="M0 960h1895.822v-1024h-1895.822zM989.867 484.978v100.978c32.711-5.689 64-17.067 92.444-34.133l39.822 66.844c-39.822 25.6-85.333 39.822-130.844 44.089v58.311h-69.689v-58.311c-78.222-11.378-133.689-56.889-135.111-128-1.422-75.378 54.044-108.089 130.844-120.889h2.844v-100.978c-38.4 5.689-75.378 19.911-106.667 42.667l-42.667-66.844c44.089-31.289 96.711-49.778 150.756-52.622v-61.156h69.689v62.578c73.956 11.378 133.689 52.622 135.111 130.844 0 71.111-59.733 105.244-136.533 116.622zM920.178 497.778c-31.289 8.533-48.356 19.911-48.356 41.244 0 22.756 18.489 38.4 48.356 45.511v-86.756zM989.867 314.311v86.756c31.289-8.533 49.778-19.911 48.356-41.244 0-22.756-19.911-38.4-48.356-45.511z" />
<glyph unicode="&#xe92e;" glyph-name="error-rounded" d="M512 960c-282.756 0-512-229.244-512-512s229.244-512 512-512c282.756 0 512 229.244 512 512s-229.244 512-512 512zM352.709 216.299l-72.411 72.411 159.291 159.291-159.291 159.291 72.411 72.411 159.291-159.291 159.291 159.291 72.411-72.411-159.291-159.291 159.291-159.291-72.411-72.411-159.291 159.291z" />
<glyph unicode="&#xe92f;" glyph-name="first-place" horiz-adv-x="1018" d="M509.234 849.063c-221.127 0-400.988-179.862-400.988-400.988s179.862-400.988 400.988-400.988 400.988 179.862 400.988 400.988-179.862 400.988-400.988 400.988zM648.13 168.639h-273.156v89.557h77.148v379.608h-81.932v89.557h204.83v-469.315h73.111v-89.557zM967.036 448.075l51.432 53.525-61.449 41.714 39.172 63.094-68.775 27.959 25.267 69.822-73.111 13.007 10.167 73.559-74.157-2.392-5.382 74.008-72.064-17.792-20.633 71.317-66.831-32.294-34.986 65.486-58.608-45.601-47.843 56.665-47.843-56.665-58.608 45.601-34.986-65.486-66.831 32.294-20.633-71.317-72.064 17.792-5.382-74.008-74.157 2.392 10.167-73.559-73.111-13.007 25.267-69.822-68.775-27.959 39.172-63.094-61.449-41.714 51.432-53.525-51.432-53.525 61.449-41.714-39.172-63.094 68.775-27.959-25.267-69.822 73.111-13.007-10.167-73.559 74.157 2.392 5.382-74.008 72.064 17.792 20.633-71.317 66.831 32.294 34.986-65.486 58.608 45.601 47.843-56.665 47.843 56.665 58.608-45.601 34.986 65.486 66.831-32.294 20.633 71.317 72.064-17.792 5.382 74.008 74.157-2.392-10.167 73.559 73.111 13.007-25.267 69.822 68.775 27.959-39.172 63.094 61.449 41.714-51.432 53.525zM509.234 29.594c-230.695 0-418.331 187.636-418.331 418.331s187.636 418.481 418.331 418.481 418.331-187.636 418.331-418.331-187.636-418.331-418.331-418.331z" />
<glyph unicode="&#xe930;" glyph-name="go-to-arrow" d="M512 960c-282.826 0-512-229.174-512-512s229.174-512 512-512 512 229.174 512 512-229.174 512-512 512zM715.358 321.082c0.721-48.315-75.141-48.171-74.42 0v207.829s-268.259-276.48-268.259-276.48c-13.701-14.567-38.508-14.999-52.642-0.865-14.711 14.278-15.144 37.931-0.721 52.642l271.288 279.509h-224.703c-48.315-0.721-48.315 75.141 0 74.42h349.602s0-337.055 0-337.055z" />
<glyph unicode="&#xe931;" glyph-name="graphic-outlined" d="M155.569 430.080h39.385v-413.538h-39.385v413.538zM529.723 321.772h39.385v-305.231h-39.385v305.231zM943.262 636.849h39.385v-620.308h-39.385v620.308zM37.415-22.843h964.923v-39.385h-964.923v39.385zM201.255 642.363l320.985-132.135c7.089-2.954 15.557-1.378 21.071 3.938l437.76 417.28-27.175 28.554-428.308-408.418-322.954 132.923c-8.074 3.348-17.526 0.985-23.040-6.105l-159.902-202.437 30.917-24.418 150.646 190.818z" />
<glyph unicode="&#xe932;" glyph-name="graphics-bold" d="M512 960c-282.826 0-512-229.174-512-512s229.174-512 512-512 512 229.174 512 512-229.174 512-512 512zM425.465 246.085h-86.535v403.831h86.535v-403.831zM555.268 246.085h-86.535v230.761h86.535v-230.761zM685.070 246.085h-86.535v302.873h86.535v-302.873z" />
<glyph unicode="&#xe933;" glyph-name="health-briefcase-bold" d="M697.728 749.824v45.44c0 64.896-42.112 113.536-97.408 113.536h-175.232c-55.168 0-97.408-48.64-97.408-113.536v-45.44h-327.68v-762.624h1025.408v762.624h-327.68zM418.56 795.264c0 9.6 3.456 18.816 9.728 25.984h172.032c6.912-6.784 10.496-16.256 9.728-25.984v-45.44h-191.488v45.44zM561.408 295.424v-113.664h-123.264v113.536h-113.536v123.264h113.536v116.864h123.264v-116.864h113.536v-123.264s-113.536 0-113.536 0z" />
<glyph unicode="&#xe934;" glyph-name="health-briefcase" d="M710.217 754.176v26.039c0 72.119-49.591 128.585-112.786 128.585h-168.96c-63.049 0-112.494-56.466-112.494-128.585v-26.039h-315.977v-772.681h1026.194v772.681h-315.977zM428.471 871.351h168.96c42.277 0 75.483-40.082 75.483-91.282v-63.342h315.977v-697.929h-951.442v697.929h316.123v63.342c0 51.2 32.914 91.282 75.045 91.282zM623.616 780.069c0.878 14.629-4.974 28.672-16.091 38.619l-4.827 3.511h-178.761l-5.12-3.511c-11.118-9.655-17.115-24.137-16.238-38.473v-63.342h221.038v63.342zM586.167 754.176h-146.139v26.039c0 1.609 0 3.072 0.439 4.535h145.408c0.293-1.463 0.439-3.072 0.439-4.535v-26.039zM312.613 281.234h110.299v-110.299h155.355v110.299h110.446v155.209h-110.446v110.299h-155.355v-110.299h-110.299v-155.209zM460.215 399.141v110.299h80.603v-110.299h110.446v-80.457h-110.446v-110.299h-80.603v110.299h-110.299v80.457h110.299z" />
<glyph unicode="&#xe935;" glyph-name="health-hexagon" d="M553.874 427.886h-95.817v55.406h-55.406v95.817h55.406v55.406h95.817v-55.406h55.406v-95.817h-55.406v-55.406zM494.629 464.457h22.674v55.406h55.406v22.674h-55.406v55.406h-22.674v-55.406h-55.406v-22.674h55.406v-55.406zM733.074 172.434h-451.109v583.497h451.109v-583.497zM318.537 209.006h377.966v510.354h-377.966v-510.354zM370.469 388.206h269.531v-36.571h-269.531v36.571zM370.469 319.634h269.531v-36.571h-269.531v36.571zM511.634-56.686c-29.989 0-59.977 7.497-87.406 22.491l-283.794 155.063c-58.514 32-94.72 93.257-94.72 159.817v327.314c0 63.634 34.011 123.611 88.686 156.343l283.794 169.691c57.783 34.56 129.463 34.56 187.063 0l283.611-169.874c54.674-32.731 88.503-92.526 88.503-156.343v-327.314c0-66.56-36.389-127.817-94.72-159.817l-283.611-155.063c-27.429-14.994-57.417-22.491-87.406-22.491zM511.634 923.429c-25.783 0-51.749-6.949-74.789-20.663l-283.794-169.874c-43.703-26.149-70.766-74.057-70.766-124.891v-327.314c0-53.211 29.074-102.217 75.703-127.817l283.794-155.063c43.703-23.954 96-23.954 139.703 0l283.611 155.063c46.629 25.6 75.703 74.423 75.703 127.817v327.314c0 50.834-27.063 98.743-70.766 124.891l-283.429 169.874c-23.040 13.897-49.006 20.663-74.789 20.663z" />
</font>
</defs>
</svg>
