<?xml version="1.0" standalone="no"?>
<!DOCTYPE svg PUBLIC "-//W3C//DTD SVG 1.1//EN" "http://www.w3.org/Graphics/SVG/1.1/DTD/svg11.dtd">
<svg xmlns="http://www.w3.org/2000/svg">
<metadata>Generated by Fontastic.me</metadata>
<defs>
<font id="fontastic-cmt" horiz-adv-x="512">
<font-face font-family="fontastic-cmt" units-per-em="512" ascent="480" descent="-32"/>
<missing-glyph horiz-adv-x="512" />

<glyph glyph-name="alert-rounded" unicode="&#97;" d="M206 509c-50-11-96-36-132-71-22-23-33-38-46-63-20-40-28-72-28-119 0-45 7-78 26-115 25-49 65-90 113-114 39-20 72-27 117-27 45 0 79 7 116 26 71 36 122 104 137 181 2 11 3 31 3 49 0 46-7 78-26 116-34 67-93 114-167 134-23 6-89 8-113 3z m73-167c-1-17-2-49-3-70l-2-39-36 0-2 39c0 21-2 53-2 70l-2 31 48 0z m-2-138c6-6 8-11 8-17 0-31-39-42-54-14-10 19 6 42 29 40 8-1 11-3 17-9z"/>
<glyph glyph-name="alert-square" unicode="&#98;" d="M0 256l0-256 512 0 0 512-512 0z m275 78c-1-32-2-72-3-90l-2-33-11 1-12 0-1 34c-1 18-3 58-3 89l-2 56 35 0z m-2-168c15-12 11-33-8-39-24-8-40 28-18 41 10 6 18 6 26-2z"/>
<glyph glyph-name="alert-triangle" unicode="&#99;" d="M501 148c0 0-168 305-168 305-23 42-75 57-117 34-15-8-26-20-34-34l-171-310c-11-21-14-44-7-66 6-22 21-41 41-52 13-7 27-11 42-11l339 6c48 0 86 40 86 87-1 14-4 28-11 41z m-413-114l-1 0c-18 0-35 7-48 19-12 13-19 30-19 48 0 11 3 22 8 32l170 311c12 21 34 34 59 34l1 0c24 0 47-13 58-34l168-306c11-20 11-46-1-66-12-20-33-33-57-33l-338-5z m158 273l19 0 0-125-19 0z m10-152c-7 0-12-6-13-12 0-7 6-13 12-13 0 0 0 0 1 0 3 0 5 1 8 3 2 3 4 5 4 9 0 0 0 0 0 1 0 6-6 11-13 12z"/>
<glyph glyph-name="alert-triangle-bold" unicode="&#100;" d="M503 109l-201 347c-4 9-11 15-19 20-26 15-58 6-73-20l-201-347c-5-8-8-17-8-27 0-29 24-53 54-53l402 0c10 0 19 2 27 7 25 15 34 47 19 73z m-228 191l-5-123-32 0-5 123z m-3-184c-5-5-11-8-18-8-7 0-13 3-18 8-5 5-7 11-7 18 0 7 2 13 7 18 5 5 11 8 18 8 7 0 13-3 18-8 5-5 8-11 8-18 0-7-3-13-8-18z"/>
<glyph glyph-name="ambulance" unicode="&#101;" d="M402 395l-69 0 0 26c0 26-22 48-48 48l-9 0c-26 0-48-22-48-48l0-26-228 0 0-293 67 0c3-17 12-33 26-44 15-11 33-16 51-14 32 4 56 28 61 58l110 0c3-17 12-33 26-44 13-10 28-15 43-15 3 0 6 0 9 1 31 4 56 28 60 58l59 0 0 183-110 110z m-69-107l0 89 61 0 88-89z m51-123c0 0 1 0 1 0 28-1 51-24 51-51l0-2c-1-28-24-51-52-50l0-3c0 0 0 3 0 3-28-1-51 22-51 50l0 1c0 29 23 52 51 52z m-197-57c-2-26-24-46-51-46l0-1c0 0 0 1 0 1l0 0c-27 0-49 20-51 47l0 0-1 4c0 29 23 52 52 52 28 0 51-23 52-52l-1-5z m-44 75c-2 0-4 0-6 0l0 0c-1 0-2 0-2 0l-1 0c-2 0-4 0-5 0l-1 0c-2 0-4-1-6-1-25-5-45-23-53-47l0-1c-1-2-1-4-1-5-1-1-1-2-1-2 0-2 0-3-1-5 0-1 0-1 0-1l-48 0 0 256 296 0 0-107 180 0 0-149-40 0c-4 35-34 62-70 62-35 0-65-27-69-62l-109 0c0 0-1 1-1 1 0 2 0 3 0 5l-1 2c0 1-1 3-1 5l0 1c-9 26-32 45-59 48z m103 212l0 26c0 16 13 29 30 29l9 0c16 0 29-13 29-29l0-26z m-13-109l-47 0 0 48-22 0 0-48-48 0 0-21 48 0 0-48 22 0 0 48 47 0z"/>
<glyph glyph-name="brand-billing" unicode="&#102;" d="M338 123l0-122-274 0 0 511 384 0 0-389z m110 0l-109 0 0-122"/>
<glyph glyph-name="brand-chart" unicode="&#103;" d="M143 373l112 0 0-307-112 0z m179-122l111 0 0-185-111 0z m-322 261l69 0 0-510-69 0z m0-446l510 0 0-64-510 0z"/>
<glyph glyph-name="brand-facebook" unicode="&#104;" d="M429 276l-22 0c-17 0-33 0-49 0-3 0-5 0-5 4 0 16 0 32 0 48 0 4 1 7 2 11 2 13 9 20 23 22 10 1 21 1 31 2 7 0 13 0 19 0 3 0 4 1 4 3 0 21 0 41 0 62 0 3-1 4-4 4-24 2-48 4-72 1-42-4-74-33-80-75-2-12-2-26-3-39 0-13 0-26 0-39 0-3-1-4-4-4-19 0-37 0-56 0l-6 0c0-2 0-3 0-4 0-23 0-46 0-69 0-3 1-5 4-5 19 1 38 0 57 1 4 0 5-2 5-6 0-62 0-124 0-186 0-7 0-7-7-7-56 0-112 0-169 0-43 1-73 21-90 60-4 9-6 20-6 30-1 39-1 77-1 116 0 70 0 140 0 209 0 38 18 66 50 85 13 8 27 12 42 12 43 0 85 0 127 0 62 0 124 0 187 0 13 0 26 0 40-4 37-12 65-49 66-89 0-45 0-90 0-136 0-62 0-124 0-186 0-42-26-78-64-91-10-4-21-5-31-6-20 0-40 0-59 0-4 0-5 1-5 5 0 62 0 125 0 187 0 7 0 7 7 7 18 0 36 0 55-1 3 0 5 1 5 5 3 23 6 45 9 68 0 1 0 3 0 5z"/>
<glyph glyph-name="brand-feedback" unicode="&#105;" d="M220 509c-130-18-226-135-219-267 7-130 111-235 242-242 175-9 308 158 259 327-32 110-135 186-249 185-11 0-26-1-33-3z m148-168l12-12-80-82c-44-45-81-81-82-81-1 1-21 19-44 42l-42 40 13 14 13 13 30-29 30-30 68 68c37 38 69 69 69 69 1 0 7-6 13-12z"/>
<glyph glyph-name="brand-laboratory" unicode="&#106;" d="M443 512l-140 0c-12 0-21-9-21-21l0-51c0-12 9-21 21-21l39 0 0-303-7-68c-2-18 4-30 10-36 6-7 16-12 26-12 1 0 1 0 2 0 0 0 1 0 1 0 11 0 20 5 27 12 5 6 11 18 9 36l-7 68 0 303 40 0c11 0 20 9 20 21l0 51c0 12-9 21-20 21z m-86-274l0 181 31 0 0-296-31 0z m32-216c-4-4-9-7-15-7-1 0-2 0-2 0-6 0-12 3-16 7-5 6-7 14-6 24l6 62 33 0 6-62c1-10-1-18-6-24z m59 418c0-3-2-6-5-6l-140 0c-4 0-6 3-6 6l0 51c0 3 2 6 6 6l19 0 0-31c0-5 3-8 7-8 5 0 8 3 8 8l0 31 28 0 0-31c0-5 4-8 8-8 4 0 7 3 7 8l0 31 29 0 0-31c0-5 3-8 7-8 4 0 8 3 8 8l0 31 19 0c3 0 5-3 6-6z m-211 72l-173 0c-9 0-15-7-15-15l0-32c0-9 6-16 15-16l0-362c0-48 39-87 87-87 47 0 86 39 86 87l0 362c9 0 16 7 16 16l0 32c0 8-7 15-16 15z m-15-403l-89 0c-6 0-11 5-11 11l0 270c0 6 5 11 11 11l89 0z m0 307l-89 0c-14 0-26-12-26-26l0-270c0-15 12-26 26-26l89 0 0-7c0-40-32-72-71-72-40 0-72 32-72 72l0 362 143 0z m16 49c0-1-1-1-1-1l-173 0c0 0 0 0 0 1l0 32c0 0 0 0 0 0l173 0c0 0 0 0 1 0z m-82-237l34 0c4 0 7 4 7 8l0 34c0 4-3 7-7 7l-34 0c-5 0-8-3-8-7l0-34c0-4 3-8 8-8z m7 34l19 0 0-19-19 0z m-7-115l34 0c4 0 7 4 7 8l0 34c0 4-3 7-7 7l-34 0c-5 0-8-3-8-7l0-34c0-4 3-8 8-8z m7 34l19 0 0-19-19 0z m-7 167l34 0c4 0 7 4 7 8 0 4-3 7-7 7l-34 0c-5 0-8-3-8-7 0-4 3-8 8-8z m0-34l34 0c4 0 7 3 7 7 0 4-3 8-7 8l-34 0c-5 0-8-4-8-8 0-4 3-7 8-7z"/>
<glyph glyph-name="brand-linkedin" unicode="&#107;" d="M512 88c0 111 0 223 0 334 0 50-41 90-90 90l-332 0c-50 0-90-40-90-90l0-332c0-50 40-90 90-90l332 0c49 0 89 39 90 88z m-366-11c-22 0-44 0-66 0-4 0-5 1-5 4 0 37 0 74 0 111 0 37 0 74 0 111 0 4 1 5 5 5 22 0 44 0 67 0 5 0 5 0 5-6 0-38 0-76 0-114 0-35 0-70 0-104 0-8 1-7-6-7z m-32 274c-27 1-47 21-46 47 0 27 21 45 46 45 12 1 24-4 33-13 8-9 13-21 13-33-1-26-22-46-46-46z m316-274c-23 0-45 0-67 0-6 0-6 0-6 5 0 43 0 86 0 128 0 20-10 34-28 40-13 4-29-1-38-12-7-8-11-17-11-27 0-42 0-84 0-125 0-9 0-9-8-9-22 0-43 0-65 0-3 0-3 1-3 4 0 74 0 148 0 223 0 3 0 4 3 4 23 0 46 0 69 0 4 0 5-1 4-5 0-7 0-14 0-21 0-1 1-2 1-4 2 2 3 4 5 6 17 19 38 30 64 28 26-1 48-13 65-34 13-17 19-36 19-58 0-46 0-92 0-139 0-3-1-4-4-4z"/>
<glyph glyph-name="brand-money" unicode="&#108;" d="M0 394l512 0 0-276-512 0z m267-128l0 27c9-1 18-4 25-9l11 18c-11 7-23 11-35 12l0 16-19 0 0-16c-21-3-36-15-37-35 0-20 15-29 36-32l1 0 0-27c-11 1-21 5-29 11l-12-18c12-8 26-13 41-14l0-17 19 0 0 17c20 3 36 14 36 35 0 20-16 29-37 32z m-18 3c-9 3-14 6-14 12 0 6 5 10 14 12z m18-49l0 23c9-2 14-5 13-11 0-6-5-10-13-12z"/>
<glyph glyph-name="brand-question-square" unicode="&#109;" d="M0 256l0-256 512 0 0 512-512 0z m269 135c41-9 66-39 63-76-2-27-16-47-40-59-10-5-17-7-37-11-6-2-7-3-8-18l-2-16-24 0 0 60 14 0c30 0 52 10 61 28 12 25 1 50-27 61-10 3-18 5-37 5l-24 0 0 14-1 15 25 0c14 0 31-2 37-3z m-25-223c14-7 18-24 8-36-7-8-16-10-26-6-9 4-14 12-14 20 0 18 17 30 32 22z"/>
<glyph glyph-name="callcenter" unicode="&#110;" d="M242 1l-5 0c-2 0-5 0-7 1-12 1-21 11-21 23 0 8 0 20 0 31 0 12 10 22 23 23 7 0 15 0 24 0l35 0c7 1 15-3 20-9 3-5 5-10 5-16 2 0 5 0 7 1 3 0 6 0 9 1 7 0 13 1 20 3 11 2 22 7 31 15 8 8 14 18 17 29 2 8 3 17 4 25l-11 0c-8 0-16 6-17 14 0 1 0 1 0 2 0 2 0 4 0 6l0 171c0 2 0 4 1 6 0 8 7 14 14 13 5 0 9 1 13 0 0 7-1 14-2 20-9 54-46 98-97 116-9 3-18 5-27 6-3 1-7 1-10 1-4 0-8 1-13 1-11 0-23-2-35-4-16-4-31-11-45-20-11-7-20-15-28-25-8-8-15-17-20-27-7-12-12-26-15-40-2-7-3-15-3-23 0-1 0-2-1-3l0-2 11 0c8 2 16-4 17-13 0-1 0-2 0-3l0-176c0-3 0-6-1-9-2-6-7-11-14-11l-30 0c-4 0-7 1-11 2l-2 0c-24 5-42 24-44 48-1 7-2 15-1 22l0 78c-1 9 1 18 4 26 4 12 12 21 23 27 6 4 13 7 21 8 0 2 0 4 0 6 0 2 0 4 0 5 0 4 1 8 2 11 0 2 0 4 0 5 3 15 8 30 14 44 16 34 43 62 76 80 12 7 25 12 38 15 8 2 16 4 23 5 3 0 6 0 9 1l2 0c3 0 7 0 10 0 5 0 9 0 13 0 9-1 18-2 26-4 33-8 64-25 88-49 11-12 21-26 29-41 7-12 12-25 16-39 1-8 3-16 4-23 0-4 1-8 0-12l0-4c10-2 19-5 27-11 11-9 19-22 20-36 1-7 2-13 2-20l0-78c0-8-1-15-2-22-4-18-17-32-34-39-4-1-8-2-12-3l0 0c-1-17-4-34-11-49-7-16-19-30-34-39-10-5-21-9-32-11-13-3-26-4-38-5 0-5-2-9-5-14-4-7-12-11-21-10l-49 0z m-5 28l51 0 0 7c0 5 0 10 0 15-17 0-34 0-51 0 0-8 0-15 0-22z m172 284l-5 0 0-157 2 0c7-1 14 0 21 1 14 2 25 14 24 29 0 3 0 6 0 9 1 5 1 10 1 16 0 19 0 40 0 63l0 3c0 4 0 7-1 10 0 9-5 17-13 21-6 3-12 5-19 5l-10 0z m-301-157l0 157-16 0c-4 0-8-1-12-2-10-3-17-11-19-21-1-4-1-9-1-14l0-77c0-6 0-12 1-18 0-8 5-16 13-20 5-3 11-5 17-5 1 0 3 0 5 0l8 0c1 0 2 0 4 0z"/>
<glyph glyph-name="camera-bold" unicode="&#111;" d="M511 330c0 44-36 78-80 80-14 0-28 0-42 0-23 0-29 7-30 29-2 33-22 53-55 53-30 0-60 0-90 0-41 0-58-17-61-57-1-17-8-24-26-25-13 0-26 0-39 0-54-1-88-35-88-89 0-70 0-141 0-211 0-55 34-90 89-90 56 0 112 0 167 0 58 0 116 0 174 0 45 1 81 36 81 80 1 77 1 154 0 230z m-255-248c-80 0-144 63-144 143-1 81 64 145 145 145 80-1 143-65 143-145 0-79-64-143-144-143z m0 254c-61 0-109-48-110-109 0-62 48-111 110-111 60 0 109 48 110 109 0 61-48 110-110 111z"/>
<glyph glyph-name="chef" unicode="&#112;" d="M232 4c-3 0-9 0-13 4-4 5-5 11-5 15 1 21 1 42 0 62 0 6 1 15 10 22 32 23 64 45 95 68 6 4 12 5 19 2 6-2 13-5 20-8 11-4 23-9 35-14 24-10 42-41 43-73 0-16 0-32 0-48 0-25-15-30-27-30-21 0-42 0-63 0l-49 0c-21 0-43 0-64 0 0 0 0 0-1 0z m98 157c-32-23-63-46-95-69-1-1-2-2-2-6 0-21 0-42 0-63 0 0 0-1 0-1 21 0 43 0 64 0l49 0c21 0 42 0 63 0 5 0 9 0 9 13 0 15 0 31 0 47 0 24-15 49-32 57-12 4-23 9-35 14-7 2-13 5-20 8l-1 0z m-55-114c0 0-1 0-1 0-15 1-25 12-25 26 0 8 3 14 8 19 5 4 11 7 19 7 14-1 25-12 24-27 0-7-3-13-7-18-5-4-11-7-18-7z m0 34c-3 0-4-1-6-2-1-2-2-4-2-6 0-5 3-8 7-8 3 0 5 1 6 2 2 2 2 4 2 6 0 5-2 7-7 8 0 0 0 0 0 0z m-85-77c-1 0-1 0-1 0-11 0-21 0-31 0l-26 0c-10 0-21 0-31 0-14 0-24 10-24 24 0 6 0 11-1 17 0 19-1 38 3 57 7 27 21 45 42 54 11 4 22 9 34 13 6 3 13 6 19 8 7 3 14 2 19-2 14-10 25-18 36-25 6-4 8-8 8-13 0-7-6-11-8-12-2-2-4-3-6-5-4-3-7-5-11-7-3-2-5-5-5-14 0-11 0-21 0-32 0-14 0-29 0-44 0-5-1-11-5-15-4-4-9-4-12-4z m-19 18c6 0 12 0 18 0 0 0 0 1 0 1-1 15-1 30-1 44 0 11 0 21 0 32 0 13 5 23 14 29 4 2 7 5 10 7 1 1 2 2 3 2-10 7-20 15-33 24 0 0 0 0-1 0-6-3-13-6-20-8-11-5-22-9-33-14-16-6-26-20-31-41-4-17-3-34-2-52 0-6 0-12 0-17 0-5 2-7 6-7 10 0 21 0 31 0l26 0c4 0 8 0 13 0z m172 245l-173 0 0 86c0 0-1 1-3 1-27 12-44 44-37 73 6 30 33 52 63 52 0 0 0 0 0 0 5 0 7 1 10 5 13 15 32 24 53 24 22 0 42-9 55-24 3-4 4-4 8-4 31 0 58-22 65-54 6-29-11-60-39-72-1 0-2-1-2-1 0 0 0 0 0-2 0-2 0-63 0-75z m-155 18l137 0c0 28 0 64 0 66 0 10 4 16 13 20 20 8 32 30 28 52-5 22-24 39-47 38-9 0-16 3-22 11-10 12-25 18-41 18-15 0-30-6-40-18-6-7-13-10-23-11-22 0-41-16-46-38-4-21 8-44 27-52 3-1 13-5 14-17l0-69z m71-113c-4 0-9 0-13 1-41 7-70 37-74 77l-1 11 174 0c0 0-1-10-1-10-1-9-3-17-6-24-13-33-46-55-79-55z m-67 71c6-27 28-47 57-52 30-5 61 13 73 43 1 3 2 6 3 9z"/>
<glyph glyph-name="chevron-down-rounded" unicode="&#113;" d="M512 256c0 141-115 256-256 256-141 0-256-115-256-256 0-141 115-256 256-256 141 0 256 115 256 256z m-486 0c0 127 103 230 230 230 127 0 230-103 230-230 0-127-103-230-230-230-127 0-230 103-230 230z m348 64c-6 7-16 7-22 0l-96-96-96 97c-6 6-16 6-22 0-6-6-7-16-1-22 1 0 1 0 1-1l107-107c6-6 16-6 22 0l107 107c7 6 7 16 0 22z"/>
<glyph glyph-name="chevron-left-rounded" unicode="&#114;" d="M256 0c141 0 256 115 256 256 0 141-115 256-256 256-141 0-256-115-256-256 0-141 115-256 256-256z m0 486c127 0 230-103 230-230 0-127-103-230-230-230-127 0-230 103-230 230 0 127 103 230 230 230z m64-348c7 6 7 16 0 22l-96 96 97 96c6 6 6 16 0 22-6 6-16 7-22 1 0-1 0-1-1-1l-107-107c-6-6-6-16 0-22l107-107c6-7 16-7 22 0z"/>
<glyph glyph-name="chevron-right-rounded" unicode="&#115;" d="M256 512c-141 0-256-115-256-256 0-141 115-256 256-256 141 0 256 115 256 256 0 141-115 256-256 256z m0-486c-127 0-230 103-230 230 0 127 103 230 230 230 127 0 230-103 230-230 0-127-103-230-230-230z m-64 348c-7-6-7-16 0-22l96-96-97-96c-6-6-6-16 0-22 6-6 16-7 22-1 0 1 0 1 1 1l107 107c6 6 6 16 0 22l-107 107c-6 7-16 7-22 0z"/>
<glyph glyph-name="chevron-up-rounded" unicode="&#116;" d="M0 256c0-141 115-256 256-256 141 0 256 115 256 256 0 141-115 256-256 256-141 0-256-115-256-256z m486 0c0-127-103-230-230-230-127 0-230 103-230 230 0 127 103 230 230 230 127 0 230-103 230-230z m-348-64c6-7 16-7 22 0l96 96 96-97c6-6 16-6 22 0 6 6 7 16 1 22-1 0-1 0-1 1l-107 107c-6 6-16 6-22 0l-107-107c-7-6-7-16 0-22z"/>
<glyph glyph-name="clock-rush" unicode="&#117;" d="M320 448c-106 0-192-86-192-192 0-106 86-192 192-192 106 0 192 86 192 192 0 106-86 192-192 192z m0-365c-96 0-174 77-174 173 0 96 78 173 174 173 96 0 173-77 173-173 0-96-77-173-173-173z m11 162l0 165-19 0 0-197 99 59-10 16z m-265 187l107 0 0-19-107 0z m-66-66l107 0 0-18-107 0z m0-134l107 0 0-19-107 0z m56-126l107 0 0-19-107 0z m-10 194l61 0 0-18-61 0z m18-130l61 0 0-19-61 0z"/>
<glyph glyph-name="clock-time" unicode="&#118;" d="M437 437c-48 48-113 75-181 75l0 0c-141 0-256-115-256-256 0-68 27-133 75-181 48-48 113-75 181-75l0 0c141 0 256 115 256 256l0 0c0 68-27 133-75 181z m-181 57l0 0c63 0 123-25 168-70 45-45 70-104 70-168 0-131-107-238-238-238l0 0c-63 0-123 25-168 70-45 45-70 104-70 168 0 63 25 123 70 168 45 45 104 70 168 70z m-7-380l18 0 0-84-18 0z m129 167l-9 16-102-61 0 229-18 0 0-262 128 78z m-338-24l74 0 0-19-74 0z m358 0l77 0 0-19-77 0z m-300-156l0-1 13-13 56 56 0 1-13 13z m320 293l0 1-13 13-49-50-1 0 13-13z m-71-248l13 13 58-59-13-13z m-249 249l13 13 48-48-13-13z"/>
<glyph glyph-name="cyclical-worker" unicode="&#119;" d="M106 250l0 0c0 0 0 1 0 1l0 0c1 5-1 9-5 11-4 1-8 0-10-3-6-6-13-12-19-18-2-3-4-5-6-7l-4-3 0 10c0 14 0 28 2 42 2 20 8 39 16 57 17 35 44 65 78 85 26 15 56 24 87 26 14 1 29 0 43-2 18-3 35-9 52-17 29-14 55-36 75-63 0 0 1-1 2-2 0-1 1-1 1-1l1-2 13 11-1 1c0 0-1 1-1 1-12 18-26 33-43 46-35 28-77 44-121 46-23 1-46-2-68-8-18-6-36-13-52-23-50-31-86-82-97-140-3-13-4-27-4-41l0-26c0 0 0 0 0-1-1 0-1 1-1 1l-11 11c-6 6-12 12-18 18-3 3-7 3-10 1-4-1-6-5-5-9 1-2 2-4 4-6l41-41c1-1 2-3 4-4 1-1 3-1 4-1 2 0 4 1 6 2l44 44c1 1 2 2 3 4z m406 12c0 0 0 0 0 0-1 3-2 5-4 6l-42 41c-1 1-2 2-3 3-1 1-3 2-5 2-2 0-4-1-5-2l-44-44c-1-2-2-3-3-5-2-5 1-10 5-11 4-2 8 0 10 2 6 7 12 13 19 19 2 3 4 5 7 7l2 3 0-10c1-14 1-28-1-42-2-20-7-39-16-57-16-36-42-65-76-86-26-16-57-25-87-27-14-1-29 0-43 2-18 3-36 8-52 16-30 14-56 35-76 62 0 1-1 2-2 3 0 0-1 1-1 1l-1 1-13-10 2-3c12-17 27-33 44-46 35-27 77-42 121-44 3 0 6 0 8 0 20 0 40 3 60 9 18 5 35 13 51 23 51 31 86 83 97 141 2 13 4 27 3 41l0 24 0 2c0 0 0 1 0 1 0 0 0-1 1-1l11-11c6-6 12-12 18-18 3-2 7-3 10-1 4 2 5 5 5 9z m-174-115l2 0c3 1 5 2 7 4 3 2 4 5 4 9 0 0 0 1 0 1 0 2 0 5 0 7l0 1c1 8 0 16-1 24-6 38-35 69-73 77 22 9 37 31 37 56-1 15-8 31-19 41-11 10-25 16-40 15-14 1-28-5-39-15-11-11-19-26-19-42 0-16 7-32 19-43 5-5 11-9 18-12-3 0-5-1-8-2-16-5-30-14-41-27-11-11-18-24-22-39-3-14-4-27-3-41 0-4 1-7 3-10 3-2 6-4 10-4 0 0 1 0 1 0l2 0c0 0 162 0 162 0z m-66 108c32-7 57-33 62-65 1-7 2-14 1-22l0 0c0-2 0-3 0-5l-16 0 0 10c0 4 0 9 0 13 0 4-1 7-3 10-2 2-6 3-9 3-3 0-6-1-9-4-2-2-3-5-3-9-1-8-1-16-1-23l-54 0c-8 0-16 0-23 0 0 8 0 16-1 24 0 7-5 12-11 12-1 0-1 0-1 0-3 0-6-1-8-3-3-3-4-6-4-9 0-8 0-16 0-24-5 0-10 0-17 0 0 12 1 24 4 35 3 12 9 23 17 33 10 10 22 18 35 22 13 4 28 5 41 2z m12 101c8-8 13-19 14-31 0-11-4-22-12-30-8-8-18-13-29-13-12 0-22 4-30 11l-1 1c-8 7-12 17-13 28-1 11 3 22 11 30 1 1 2 2 3 3 7 7 16 11 26 11 1 0 1 0 2 0l1 0c10 0 20-3 28-10z"/>
<glyph glyph-name="dartboard" unicode="&#120;" d="M412 402l96 28-70 12-19 70-22-99-21-23c-41 37-93 57-148 57l-2 0c-122-2-221-102-222-224l0-2c1-59 25-114 66-156 42-41 97-64 156-65l2 0c121 0 221 100 223 221l0 2c0 58-22 113-62 154z m-129-186c-2-15-10-28-21-37-12-9-27-13-42-11-15 2-28 9-37 21-9 12-13 27-11 42 2 14 9 27 21 37 10 7 22 11 34 11l1 0c11 0 22-3 32-10l-44-46 13-13 44 46c8-12 12-26 10-40z m73 6c-1-70-58-127-128-127l-1 0c-71 0-127 56-128 127l0 1c0 70 58 128 128 129l1 0c30 0 59-11 82-30l-37-39c-16 11-34 17-54 14-19-2-37-11-50-27-10-13-16-30-16-47l0 0c1-41 33-74 75-74 40 0 74 33 74 74l0 0c0 17-6 34-16 47l37 39c21-24 33-54 33-86l0-1z m-33 113c-27 23-60 35-95 35l-1 0c-81 0-146-66-146-147l0-1c1-81 65-145 146-146l1 0c80 0 146 66 147 146l0 1c0 37-14 72-39 99l40 42c36-38 56-88 56-141l0-2c-1-111-93-202-204-202l-2 0c-112 1-201 90-203 202l0 2c0 112 91 204 203 205l2 0c50 0 98-18 135-51l-40-42z"/>
<glyph glyph-name="desk-worker" unicode="&#121;" d="M339 396c31 0 57 25 57 57 0 31-26 57-57 57-32 0-57-26-57-57 0-32 25-57 57-57z m0 94c20 0 37-17 37-37 0-21-17-38-37-38-21 0-38 17-38 38 0 20 17 37 38 37z m57-227l0 79c0 28-23 51-51 51l-12 0c-28 0-51-23-51-51l0-79-27 0 0 76-147 0 0-76-29 0 0-261 354 0 0 261-37 0z m-63 110l12 0c3 0 6 0 9-1l-15-16-15 16c3 1 6 1 9 1z m-31-31c0 7 2 14 6 19l30-34 32 34c4-5 6-12 6-19l0-79c0 0-74 0-74 0l0 79z m-174-23l107 0 0-56-107 0z m285-297l-314 0 0 221 314 0z"/>
<glyph glyph-name="diver" unicode="&#122;" d="M361 252l-36 14 26 42c6 9 8 20 5 31-3 10-9 19-18 25-13 8-29 8-41 1l-2 1c-5 4-12 5-18 3-6-1-11-5-15-10l-53-82c-4-6-5-12-3-18 1-6 5-12 10-15 0 0-5-7-5-7-2-5-4-10-5-16l-49-47-59 15c-4 3-9 4-13 4l-78 2 2-64 72 8 74-20c13-4 27 1 34 11l34 33 2-39-74-14c-7-2-14-5-18-10-1-1-2-2-2-2l-56-55 48-43 45 59 85 16c1 1 3 1 4 1 13 3 23 16 22 32l-3 79c2 2 4 4 5 7l19 31 44-17c6-2 12-2 18 1 6 2 10 7 12 13 3 6 3 12 0 18-3 6-7 10-13 12z m0-25c0-3-2-5-5-6-2-1-5-1-7 0l-55 21-25-41c-1-2-3-4-5-6l-2-2 3-86c1-8-4-16-11-17l-1 0c-1-1-2-1-3-1l-90-18-39-51-25 23 45 45c0 0 1 1 2 2 2 3 6 5 11 6l85 17-3 82-58-56-1-1c-3-5-11-8-18-6l-77 21-60-7-1 35 64-2c2 0 5-1 7-2l69-19 58 57 0 3c1 4 2 8 4 11l8 13 3 7-6 4-5 3c-2 1-4 3-4 6-1 2 0 5 1 7l54 83c2 3 6 5 10 4l-26-42c-1-4 0-8 3-10 1-1 2-1 3-1 3 0 5 1 6 3l26 43 0-1 4 3c9 6 21 7 30 1 6-4 10-10 12-17 2-7 1-14-3-20l-35-56 51-20c3-1 5-2 6-5 1-2 1-5 0-7z m-3 220c-22 0-40-18-40-40 0-23 18-41 40-41 9 0 18 3 25 8l28-8 0 75-22-8c-8 9-19 14-31 14z m-26-40c0 14 12 26 26 26 6 0 11-1 15-4l0-44c-4-3-9-5-15-5-14 0-26 12-26 27z m65-22l-10 2 0 31 10 3 0-37z m45 97c-12 0-21-10-21-21 0-12 9-21 21-21 11 0 21 9 21 21 0 11-10 21-21 21z m0-31c-5 0-10 5-10 10 0 5 5 10 10 10 5 0 10-5 10-10 0-5-5-10-10-10z m43 61c-12 0-21-9-21-21 0-11 9-20 21-20 11 0 20 9 20 20 0 12-9 21-20 21z m0-30c-6 0-10 4-10 9 0 6 4 10 10 10 5 0 9-4 9-10 0-5-4-9-9-9z"/>
<glyph glyph-name="document-boxes" unicode="&#65;" d="M127 424l-77 0c-4 0-6-3-6-6l0-77c0-3 2-6 6-6l77 0c3 0 6 3 6 6l0 77c0 3-3 6-6 6z m-6-77l-65 0 0 65 65 0z m6-52l-77 0c-4 0-6-2-6-6l0-77c0-3 2-6 6-6l77 0c3 0 6 3 6 6l0 77c0 4-3 6-6 6z m-6-77l-65 0 0 65 65 0z m6-51l-77 0c-4 0-6-3-6-6l0-77c0-4 2-6 6-6l77 0c3 0 6 2 6 6l0 77c0 3-3 6-6 6z m-6-77l-65 0 0 65 65 0z m38 59l159 0 0-14-159 0z m0-35l159 0 0-14-159 0z m-159-109l381 0 0 502-381 0z m18 485l346 0 0-468-346 0z m141-211l159 0 0-14-159 0z m0-36l159 0 0-14-159 0z m0 157l159 0 0-14-159 0z m0-36l159 0 0-14-159 0z m345-8l-73 0c-4 0-7-4-7-8l0-272c0-1 0-2 0-3 0 0 0 0 0 0 0 0 1-1 1-1l35-61c2-2 4-4 7-4l0 0c3 0 5 2 6 4l38 61c0 0 0 1 0 1 0 0 0 0 0 0 1 1 1 2 1 3l0 272c0 4-3 8-8 8z m-65-67l58 0 0-205-58 0z m0 51l58 0 0-35-58 0z m28-310l-22 38 46 0z"/>
<glyph glyph-name="document-checks" unicode="&#66;" d="M221 163l175 0 0-16-175 0z m0-39l175 0 0-16-175 0z m-174 384l0-504 418 0 0 504z m398-484l-378 0 0 464 378 0z m-224 252l175 0 0-15-175 0z m0-38l175 0 0-16-175 0z m0 152l175 0 0-16-175 0z m0-39l175 0 0-15-175 0z m-85-22l43 42c2 2 3 4 3 6 0 2-1 4-2 6-4 3-9 3-12 0l-32-30-13 13c-3 3-8 3-12 0-1-1-2-3-2-6 0-2 1-4 2-6l24-25z m32-58l-32-30-13 13c-3 3-8 3-11 0-2-2-3-4-3-6 0-2 1-4 2-6l25-25 43 42c4 3 4 9 1 12-4 3-9 3-12 0z m-32-166l43 42c2 1 3 3 3 6 0 2-1 4-2 6-4 3-9 3-12 0l-32-31-13 14c-3 3-8 3-12 0-1-2-2-4-2-6 0-2 1-4 2-6l24-25z"/>
<glyph glyph-name="document-lens" unicode="&#67;" d="M490 139l-68 48 0 325-363 0 0-49-48 0 0-463 364 0 0 48 47 0 0 73 37-26c4-3 10-5 15-5 9 0 17 5 22 12 9 12 6 28-6 37z m-152 96c-3-8-8-15-13-21-2-3-3-5-5-7-21-22-49-34-79-34-59 0-107 48-107 107 0 59 48 107 107 107 59 0 107-48 107-107 0-16-3-31-10-45z m18-217l-327 0 0 427 30 0 0-397 297 0 0-30z m48 49l-327 0 0 427 327 0 0-294-47 34c6 14 9 30 9 46 0 69-56 125-125 125-69 0-125-56-125-125 0-69 56-126 125-126 32 0 63 13 86 35l77-55z m77 45l0 0c-2-4-8-5-12-2l-120 86-9 7c2 2 3 5 5 7 0 0 0 1 0 1 2 2 3 4 4 6l58-41 15-11c0 0 57-41 57-41 4-3 5-8 2-12z m-174 214c5-4 4-11 0-15l-68-65-15-15-15 16-30 30c-4 4-4 11 1 15 4 4 11 4 15 0l29-30 68 64c4 5 11 4 15 0z"/>
<glyph glyph-name="documents" unicode="&#68;" d="M98 512l0-49-48 0 0-463 364 0 0 49 48 0 0 463z m298-463l0-31-327 0 0 427 29 0 0-396z m47 445l0-427-327 0 0 427z m-286-208l257 0 0-18-257 0z m0 83l257 0 0-18-257 0z m0-165l257 0 0-18-257 0z"/>
<glyph glyph-name="earphones-noise" unicode="&#69;" d="M283 246l0 0c-4 7-10 12-18 14-8 3-17 2-24-2-5-3-9-7-12-12l-51-95c-4-7-5-16-3-23 2-8 8-15 15-19 4-2 10-4 15-4l103 2c8 0 16 4 22 10 5 6 8 13 8 22 0 5-1 9-3 14l-52 93z m40-113c-2-4-4-7-8-9-2-1-5-2-7-2l-103-2c-9 0-16 8-16 16 0 3 0 6 2 8l51 95c3 5 8 8 14 8l1 0c5 0 10-4 13-8l51-93c2-4 3-8 2-12l0-1c0 0 0 0 0 0z m-66 24c0 0-1 0-1 0l-1 0c0 0 0 0 0 0-2 0-4-1-5-2-1-2-2-4-2-6 0-5 4-8 8-8 4 0 8 4 8 8 0 4-3 8-7 8z m-8 54l14 0 0-47-14 0z m262-27c-1 10-6 19-14 26-11 8-21 15-32 18-5 2-10 4-16 5l0 51c0 107-86 193-193 193-107 0-193-86-193-193l0-52c-6 0-11-2-16-4-11-4-21-10-32-18-8-7-13-16-14-26-1-9-1-18-1-27l0-2c0-2 0-4 0-6 1-11 2-21 5-31 3-15 7-30 14-44 1-4 4-8 7-12 6-6 12-10 21-13l1 0c8-3 18-6 28-5 4-1 8 0 12 0 2 0 4 1 6 1l2 0c2 1 4 1 6 2 5-9 14-12 20-12l1 0c13 0 23 10 24 23l0 2c0 0 0 2-1 3-2 11-4 22-5 33-1 5-2 9-3 14 0 5-1 9-2 14l0 3c-2 10-4 20-5 31-1 3-2 7-2 11l-3 15c0 3-1 6-1 9-1 7-2 14-3 19l0 1c-1 5-2 11-3 16-1 8-5 14-10 18-5 4-12 6-19 5-3-1-7-3-10-5l0 37c0 97 79 176 176 176 97 0 176-79 176-176l0-37c-3 2-7 4-10 4-7 2-14 0-19-4-5-4-9-10-10-18-1-5-2-11-3-17-1-6-2-12-3-19 0-3-1-6-1-10l-3-13c0-4-1-8-2-12-2-11-3-22-5-31l0-3c-1-4-2-9-2-13l0-1c-1-5-2-9-3-14-1-11-3-22-5-33-1-1-1-2-1-4l0-1c0 0 0 0 0 0 1-13 11-23 24-23l1 0c7 0 15 3 20 12 2-1 4-1 6-2l2 0c2-1 4-1 6-1 4-1 8-1 12-1 11 0 21 4 29 6 9 2 15 7 21 12 3 5 6 9 7 13 7 14 11 29 15 44 2 10 3 20 4 31 0 2 0 4 0 5l0 3c0 9 0 18-1 27z m-17-27l0-2c0-2 0-3 0-5 0-10-2-20-4-28-3-14-7-28-13-41-1-3-2-5-4-8-3-3-8-6-13-7-7-2-16-5-25-5-3 0-6 0-9 0-2 1-3 1-4 1l-3 1c-1 0-3 0-5 1l25 152c7 0 13-2 20-4 9-3 18-8 27-16 4-4 7-8 8-14 0-8 0-16 0-25z m-111-98c2 11 4 22 6 34 0 5 1 9 2 14l0 0c1 5 2 10 2 14l1 3c1 10 3 20 5 30 0 5 1 9 2 13l2 13c0 4 1 7 2 11 1 6 2 12 3 18 1 6 2 12 2 18 1 3 2 5 3 6 1 1 3 1 4 1 1 0 1 0 2 0 1 0 2-1 3-2 1-2 2-3 1-4l-5-35-1-4c0 0-21-129-21-129 0-1-1-2-1-3-1-4-4-5-5-5l0 0c-4 0-7 3-7 6l0 1z m-267 0l-21 130 0 0-7 39c0 1 1 2 2 4 1 1 2 2 3 2 2 0 4 0 6-1 1-1 2-3 3-6 0-6 1-12 2-18 1-5 2-12 3-19 1-3 2-7 2-10l2-13c1-4 2-9 2-13 2-10 4-20 5-30l1-3c0-4 1-9 2-14l0 0c1-5 2-9 2-14 2-9 4-21 6-34l0 0c0-4-3-7-7-7-1 0-4 1-5 5 0 1-1 2-1 2z m-43 157l25-152c-2-1-4-1-5-1l-3-1c-1 0-2 0-3-1-4 0-7 0-11 0-8 0-17 3-24 5-5 1-9 4-13 7-2 3-3 6-4 8-6 13-10 27-13 41-2 8-3 18-4 28 0 2 0 3 0 5l0 2c0 9 0 17 1 25 0 6 3 10 7 14 9 7 18 13 27 16 7 2 13 4 20 4z"/>
<glyph glyph-name="envelope" unicode="&#70;" d="M24 101c-12 0-21 10-21 22l0 266c0 12 9 22 21 22l464 0c12 0 21-10 21-22l0-266c0-12-9-22-21-22l-464 0z m18 26l428 0-131 153-83-55-83 55-131-153z m319 167l122-143 0 224z m-333-143l123 143-123 81z m228 105l196 129-392 0z"/>
<glyph glyph-name="error-rounded" unicode="&#71;" d="M256 512c141 0 256-115 256-256 0-141-115-256-256-256-141 0-256 115-256 256 0 141 115 256 256 256z m124-159l-27 27-97-97-97 97-27-27 97-97-97-97 27-27 97 97 97-97 27 27-97 97z"/>
<glyph glyph-name="face-mask" unicode="&#72;" d="M478 139l-2 2c-5 4-43 36-54 44 5 10 8 20 9 31 1 5 16 122 17 129 2 17-1 34-7 50-5 12-10 24-15 36l-4 8c-5 14-14 26-25 36-17 15-37 25-59 28-2 0-28 3-34 4 0 0-11 1-15 1-9 1-27 2-27 2 0 0-37-1-53-3-3-1-6-1-9-2-5 0-9-1-14-1-13-1-27-4-39-9-25-10-44-28-56-52-4-9-11-26-11-26 0 0-11-25-13-32-3-11-4-22-4-33 1-7 17-130 18-141 2-9 4-18 8-26-9-7-45-37-54-44-4-3-6-8-7-14 0-4 0-8 1-12 4-12 9-23 15-34 14-23 31-43 51-60 8-7 17-12 26-16 3-2 6-2 9-3 7 0 13 2 18 6 9 8 40 34 40 34 1-1 1-1 2-2 14-15 33-24 58-26 9-1 18 0 26 1 16 3 31 10 43 20 2 2 4 4 6 7l43-36c3-2 8-4 12-4l0 0c7 0 14 2 19 6 11 6 21 14 30 23 20 19 37 41 49 66 4 8 6 17 7 26 1 6-1 12-5 16z m-12-12c0-1 0-1 0-2l0-2c0-5-1-10-4-15-7-18-18-34-31-49-8-10-18-20-29-28-6-4-11-8-18-11-1 0-3-1-4-1l-3 0c-1 4 0 8 1 12 3 10 8 20 13 29 13 20 30 39 49 55 5 4 11 8 18 11 2 1 4 1 7 1l1 0z m-332-96c1-3 1-5 1-8l0-1c0-1 0-2 0-2-1 0-2-1-3 0-4 0-7 1-10 3-11 6-21 14-30 24-16 16-29 34-39 54-3 6-6 12-7 18-1 3-1 6 0 9 0 0 1 0 2 0 2 0 4-1 5-1 7-3 13-7 19-12 20-16 36-35 50-58 0 0 9-17 12-26z m-52 97c-6 5-13 10-20 13l23 19c7 5 13 10 19 15 2 2 6 2 9 1 7-3 13-7 19-13 24-19 42-42 56-68 3-6 5-12 6-17 1-3 1-5 1-7l0-1c0 0 0-2-3-4-10-8-41-34-41-34-1 6-3 12-6 17-6 13-13 25-22 36-12 16-25 31-41 43z m230 87c-1 0-3 0-4 0-4 6-8 12-13 17-6 6-12 11-19 14-6 4-13 5-20 5-8 0-15-2-22-6-10-5-18-13-25-22-2-3-4-6-5-9-16 3-57 17-60 19-9 4-15 12-17 21 0 3-12 93-12 100-1 8 0 17 4 25 5 12 11 25 17 40 6 15 20 27 36 31 6 2 41 6 41 6 14 2 28 3 43 3 12-1 25-1 37-3 0 0 24-3 33-4 9 0 18-3 26-7 10-5 19-15 24-25 6-15 12-29 17-42 4-10 5-20 4-30-1-7-9-68-10-73 0-5-1-10-2-16 0-12-8-23-19-28 0 0-51-15-54-16z m102 4c0 0-1-10-2-13-1-5-3-9-4-13-8 1-16-1-23-5-10-7-20-14-28-22-7-7-14-14-20-22-2 8-4 16-7 23-3 11-8 22-13 32 1 1 2 1 4 1 3 1 7 2 11 3 14 3 28 8 41 13 15 7 26 21 28 37 2 7 3 15 3 22l1 3c0 4 1 8 2 13 1 10 2 20 4 30 0 4 1 8 1 11 1 8 2 15 2 22 1 12-2 24-7 34-4 11-9 23-15 36-7 18-21 32-38 39-8 3-16 5-24 6-5 1-30 4-35 4-15 2-29 3-44 3-12-1-24-2-33-3-3 0-6 0-10-1 0 0-14-2-20-2-17-1-33-7-46-17-9-7-17-17-21-28-6-13-12-27-18-40-4-11-6-23-5-35 0-5 11-83 11-86 0-4 1-8 2-11 2-16 13-30 28-36 7-4 14-7 22-9l3-1c6-2 13-4 20-5l4-1c2-1 4-1 6-2l1 0c-6-12-12-26-15-39-2-5-4-11-5-16 0 0-1 1-1 1-12 15-26 28-41 39-4 3-9 5-14 7-3 2-7 3-11 3-1 0-3 0-4-1-4 10-6 19-6 29-1 4-4 29-5 35 0 0-10 78-12 89-1 8 0 16 1 24 1 11 5 22 10 32l0 1c2 3 3 7 5 10 3 8 6 16 10 24 10 20 27 36 48 44 10 3 20 5 31 6 7 1 30 4 34 4 4 0 9 1 14 1 18 1 36 1 53-1 3 0 48-5 51-5 16-3 32-9 44-20 11-8 19-19 24-31 8-18 15-33 21-48 2-6 4-13 4-20 1-8 1-16 0-24l-1-5c-1-8-15-117-16-119z m-210-165c0 0 1 1 1 1 4 4 7 9 7 15 0 8-2 16-5 23-5 11-10 22-17 31-1 2-2 3-1 5l1 7c2 7 3 14 6 21 6 21 16 41 29 59 5 7 11 12 19 16 8 4 18 4 26-1 8-5 15-12 20-19 11-15 19-32 24-49 4-12 7-24 10-36-6-9-12-18-16-27-4-8-7-16-8-24-2-9 2-18 9-23 1 0 1 0 1-1-6-7-14-12-23-16-9-3-19-5-29-5-5 0-10 0-15 1l-3 0c-9 2-16 4-24 8-5 3-10 7-14 12 0 1 1 1 2 2z m114 26c5 15 12 28 22 41 11 16 24 30 40 43 5 4 12 8 19 11 1 1 4 2 6 2 1 0 2-1 2-1 11-9 23-18 36-29l7-6c-10-4-18-10-26-18-21-18-38-39-51-63-6-8-9-18-12-28l-33 27c-3 3-6 6-10 8-1 1-1 2-1 3 0 3 0 6 1 10z m-113 42c0 5 3 9 8 9l86 0c5 0 8-4 8-9 0-4-3-8-8-8l-86 0c-5 0-8 4-8 8z m12 26c0 5 4 9 8 9l61 0c5 0 9-4 9-9 0-4-4-8-9-8l-61 0c-4 0-8 4-8 8z m0-52c0 5 4 8 8 8l61 0c5 0 9-3 9-8 0-5-4-8-9-8l-61 0c-4 0-8 3-8 8z"/>
<glyph glyph-name="facebook-rounded" unicode="&#73;" d="M512 256c0-141-115-256-256-256-141 0-256 115-256 256 0 141 115 256 256 256 141 0 256-115 256-256z m-220 78c8 0 15 0 23 0l3 0 0 40c-4 1-8 1-12 1-8 1-16 1-24 1-12 0-24-3-34-10-11-8-18-20-20-34-1-5-1-11-1-17-1-9 0-18 0-27l0-4-39 0 0-44 38 0 0-113 47 0 0 112 38 0c2 15 4 30 6 45l-44 0c0 0 0 23 0 32 0 14 8 18 19 18"/>
<glyph glyph-name="filter-funnel" unicode="&#74;" d="M154 154l204 0 0-103-204 0z m-154 307l154-256 204 0 154 256z"/>
<glyph glyph-name="health-briefcase" unicode="&#75;" d="M354 410l0 13c0 35-25 63-56 63l-84 0c-31 0-56-28-56-63l0-13-157 0 0-384 510 0 0 384z m-140 58l84 0c21 0 37-20 37-46l0-31 157 0 0-347-472 0 0 347 157 0 0 31c0 26 16 46 37 46z m97-46c0 8-3 15-8 20l-2 1-89 0-3-1c-5-5-8-12-8-19l0-32 110 0 0 32z m-19-12l-72 0 0 13c0 0 0 1 0 2l72 0c0-1 0-2 0-2l0-13z m-136-235l55 0 0-55 77 0 0 55 55 0 0 77-55 0 0 54-77 0 0-54-55 0z m74 58l0 55 40 0 0-55 55 0 0-40-55 0 0-55-40 0 0 55-55 0 0 40z"/>
<glyph glyph-name="health-briefcase-bold" unicode="&#76;" d="M348 407l0 22c0 33-21 57-48 57l-88 0c-27 0-48-24-48-57l0-22-164 0 0-381 512 0 0 381z m-139 22c0 5 2 10 5 13l86 0c3-3 5-8 5-13l0-22-96 0z m71-249l0-57-61 0 0 57-57 0 0 61 57 0 0 59 61 0 0-59 57 0 0-61c0 0-57 0-57 0z"/>
<glyph glyph-name="health-hexagon" unicode="&#77;" d="M277 244l-48 0 0 28-28 0 0 48 28 0 0 27 48 0 0-27 28 0 0-48-28 0z m-30 18l12 0 0 28 28 0 0 11-28 0 0 28-12 0 0-28-27 0 0-11 27 0z m120-146l-226 0 0 292 226 0z m-208 19l190 0 0 255-190 0z m26 89l135 0 0-18-135 0z m0-34l135 0 0-18-135 0z m71-188c-15 0-30 3-44 11l-142 77c-29 16-47 47-47 80l0 164c0 32 17 62 44 78l142 85c29 18 65 18 94 0l142-85c27-16 44-46 44-78l0-164c0-33-18-64-47-80l-142-77c-14-8-29-11-44-11z m0 490c-13 0-26-3-37-10l-142-85c-22-13-36-37-36-63l0-164c0-26 15-51 38-64l142-77c22-12 48-12 70 0l142 77c23 13 38 38 38 64l0 164c0 26-14 50-36 63l-141 85c-12 7-25 10-38 10z"/>
<glyph glyph-name="height-mountain" unicode="&#78;" d="M9 147c1 0 2 0 3 1l188 0c63 0 126 0 189 0 5-1 8 2 9 4 2 2 3 6-1 11-20 27-40 54-59 81l-85 117c-2 4-4 7-7 10-6 9-12 18-19 26-8 12-23 17-37 13-8-3-15-8-19-14-12-17-23-33-35-49-44-61-88-122-133-184-4-5-3-9-2-11 2-3 4-5 8-5z m174 240c2 5 6 8 11 9 8 2 17-1 22-7 6-9 12-17 18-25l-12-15-25 19-21-19-12 13c6 8 12 17 19 25z m-36-48c3 3 6 7 8 11l20-20 23 20 26-20 19 22 83-116c18-25 36-50 54-74-60 0-120 0-180 0l-180 0c42 59 85 118 127 177z m273 24c2 0 4 0 5 2l26 25 0-222-26 24c-3 3-7 3-10 0-2-3-2-8 1-10l32-30c3-2 7-4 11-4 4 0 8 2 11 5l32 30c3 3 3 7 0 10-3 3-7 3-10 0l-26-25 0 221 26-23c3-3 7-3 10 0 3 3 2 8 0 10l-33 29c-2 2-4 3-7 4-1 1-2 1-3 1-2 0-3 0-3-1-4 0-7-2-9-4l-31-30c-3-3-3-7-1-10 2-2 4-2 5-2z m89-228c-3 2-8 2-10-1-6-10-16-16-28-18-1-1-3-1-4-1-13 1-25 7-32 17-5 7-13 11-22 11-8-1-16-5-20-11-10-12-21-17-33-17-11 1-22 6-29 15-4 7-11 11-19 12-8 1-16-1-21-7-4-4-8-8-12-11-8-7-19-10-29-8-10 2-19 8-26 17-9 11-26 13-37 4-2-2-4-4-5-6-8-10-20-16-32-16-12 1-23 7-30 16-7 11-21 15-33 9-4-3-8-6-10-9-10-11-20-16-32-16-12 1-24 7-31 18-2 3-6 4-10 1-3-2-4-6-2-9 10-14 25-23 42-24 16-1 31 6 44 21 2 2 4 4 6 5 5 3 11 1 15-4 9-13 24-21 40-22 17-1 34 7 44 22 1 1 2 2 3 3 5 4 13 3 17-2 8-11 20-19 34-22 15-3 30 1 42 11 4 4 9 8 12 12 3 3 6 4 9 3 4 0 7-2 10-6 10-13 24-20 40-21 17 0 31 7 44 22 2 3 6 5 10 5 4 1 7-1 10-5 10-13 26-22 43-22 0 0 0 0 1 0 2 0 5 0 7 1 14 3 27 11 36 23 2 3 1 8-2 10z"/>
<glyph glyph-name="height-worker" unicode="&#79;" d="M485 490l0-70-77 0 0 70-19 0 0-70-109 0 0 5 2-1c0-1 1-2 2-2 5-4 13-2 16 3l20 29c3 5 2 12-3 16l0 0c-6 4-13 2-17-3l-13-19-8 6c-2 7-6 12-12 14 7 4 13 12 13 21 0 13-11 23-23 23-13 0-23-10-23-23 0-9 5-17 14-21-3-2-6-4-8-6l-2 2-8 22c-1 2-2 3-3 5l4 15-10 3-5-16c0 0-1 0-1 0-6-2-10-9-7-15l2-7-7-23 10-4 3 10c0-1 1-2 1-2 1-1 1-2 2-3l17-16 0-13-119 0 0 70-18 0 0-70-72 0 0 70-18 0 0-490 18 0 0 37 72 0 0-37 18 0 0 34 3 3 270 0 0-37 18 0 0 37 77 0 0-37 18 0 0 490z m-386-435l-72 0 0 114 72 0z m0 132l-72 0 0 112 72 0z m0 132l-72 0 0 82 72 0z m144 170c0 7 6 13 14 13 7 0 13-6 13-13 0-8-6-14-13-14-8 0-14 6-14 14z m-17-33c0 0 0 0-1 1 0 0 0 0 0 0l-9 24c0 1 1 2 2 3 0 0 1 0 1 0 0 0 0 0 0 0l1 0c0 0 1-1 1-2l8-23 15-14 2 7c2 5 6 9 12 9 6 0 11-5 12-10l1-2 19-14 18 27c1 1 2 1 4 0 1 0 1-2 0-3l-19-29c-1-1-3-1-4-1 0 1 0 1-1 1l-18 13 0-23-25 0 0 17z m148-157l-121-113-124 113z m-108 83l-2-1 0-61c0 0 0 0 0-1l-12 0c0 0 0 1 0 1l0 61-2 1c-3 3-5 6-5 10l0 9 25 0 0-9c0-4-1-7-5-10z m-149 19l119 0 0-9c0-6 2-11 7-15l0-57c0 0 0 0 0-1l-126 0z m0-342l0 227 123-112z m22-4l114 106 117-106-231 0z m251 7l-123 112 123 115z m0 257l-117 0c0 0 0 1 0 1l0 57c4 4 7 9 7 15l0 9 110 0z m95-264l-77 0 0 114 77 0z m0 132l-77 0 0 112 77 0z m0 132l-77 0 0 82 77 0z"/>
<glyph glyph-name="immediate-agenda" unicode="&#80;" d="M463 181c4 4 7 9 7 15 0 6-2 12-6 16-9 9-23 9-32 1l-86-82-34 35c-8 9-22 9-31 1-9-8-9-23-1-31l65-68 118 113z m-10 21c1-2 1-3 1-5 0-2 0-4-2-5l2-2-2 2-106-102-55 56c-1 1-2 3-2 5 0 2 1 3 2 5 2 1 3 2 5 2 2 0 4-1 5-3l45-46 97 93c2 2 7 2 10-1z m-341 124c-16 0-29-14-29-30 0-16 13-29 29-29 8 0 16 3 21 8 6 6 9 13 9 21 0 16-13 30-29 30z m0-45c-3 0-8 1-10 4-3 3-5 7-5 11 0 9 7 16 15 16 9 0 16-7 16-16 0-8-7-15-16-15z m85 45c-16 0-29-14-29-30 0-8 3-15 9-21 5-5 13-8 20-8 17 0 30 13 30 29 0 16-13 30-30 30z m0-45c-4 0-8 1-10 4-3 3-5 7-5 11 0 9 7 16 15 16 9 0 16-7 16-16 0-8-7-15-16-15z m-85-45c-7 0-15-3-20-9-6-5-9-13-9-20 0-17 13-30 29-30 8 0 16 3 21 9 6 5 9 13 9 21 0 16-13 29-30 29z m0-45c-8 0-15 7-15 16 0 8 7 15 15 15 9 0 16-7 16-15 0-9-7-16-16-16z m85 45c-7 0-15-3-20-9-6-5-9-13-9-20 0-8 3-16 9-21 5-6 13-9 20-9 17 0 30 13 30 30 0 16-13 29-30 29z m0-45c-8 0-15 7-15 16 0 8 7 15 15 15 9 0 16-7 16-15 0-9-7-16-16-16z m-152 203l295 0 0-16-295 0z m460-202c-15 52-60 91-113 99l0 179-29 0c-2 10-8 19-17 24-10 6-21 8-32 6-14-3-26-14-30-28l-1-2-1 0c-6 21-27 35-49 30-16-4-28-15-32-30l-1 0c-2 10-9 19-18 24-9 6-20 8-31 6-15-3-27-15-31-30l-2 0c-2 10-8 19-17 24-10 6-21 8-31 6-16-3-28-15-32-30l-37 0 0-360 235 0c19-60 75-99 135-99 13 0 27 2 40 6 74 22 117 101 94 175z m-427 294l0-2c10 0 19-5 23-14l-45 0c4 9 13 14 22 14z m60-16c4 9 12 14 22 14 10 0 19-5 23-14z m126 0l-45 0c4 9 13 14 23 14 9 0 18-5 22-14z m37 0c5 11 18 17 30 13 6-2 12-6 15-12 0-1 0-1 0-1l-45 0z m70-193c4 0 8-1 12-1 33-3 63-19 84-45 21-26 31-58 28-91-7-64-60-113-124-113-69 0-125 56-125 125 0 69 56 125 125 125z m-136-86c0-1 0-2 0-3-1-1-1-3-2-4l0-3c0-1-1-3-1-4l0-1c0-1 0-1 0-2-1-2-1-3-1-5l0-1c0 0 0-1 0-1-1-2-1-3-1-5l0-1c0-1 0-1 0-2 0-2 0-5 0-7 0-3 0-6 0-8l0-3c0-2 1-4 1-6 0-1 0-1 0-2 0-2 1-4 1-7l0 0c0 0-215 0-215 0l0 328 86 0c-3-11-13-19-25-19l-4 0 0-17 5 0c20 0 38 15 41 36l64 0c-2-11-12-19-24-19l-4 0 0-17 4 0c21 0 38 15 41 36l65 0c-3-11-13-19-24-19l-5 0 0-17 5 0c21 0 38 15 41 36l65 0c-3-12-15-21-28-19-1 0-3 0-4 1l-5 1-5-15 5-2c10-3 21-2 31 3 10 5 17 13 21 24 1 2 1 5 1 7l12 0 0-161c0 0-1 0-1 0l-1 0c-1 0-1 0-2 0 0 0-1 0-1 0l-1 0c-1 0-2 0-3 0l-1 0c-1 0-2 0-3 0-2 0-3 0-5-1-1 0-2 0-2 0-2 0-4 0-6-1l-2 0c-1 0-3 0-5-1l-1 0c-2 0-4-1-6-1l-1-1c-2 0-4-1-6-1l-1 0c-2-1-4-2-6-2l0-1c-2 0-4-1-6-2l-1 0c-1-1-2-1-3-2 3 5 5 10 5 16 0 17-14 30-30 30-16 0-29-13-29-30 0-7 3-15 8-20 6-6 13-9 21-9 1 0 2 0 2 0-6-4-12-9-18-15l0 0c-1-1-2-2-4-4l-1-1c-1-1-2-2-2-3l-3-3c0 0-1-1-1-2l-1-1c-1-1-1-1-2-2 0-1-1-2-2-3l0 0c-1-1-1-2-2-3-1-1-1-2-2-3l0-1c-1-1-1-1-2-2 0-1-1-2-1-3-1-1-1-2-2-3-1-1-1-2-1-3-1-1-2-2-2-4-1-1-1-2-2-2 0-2-1-3-1-4l0-1c-1-1-1-1-1-2-1-1-1-3-2-4 0-1 0-2-1-3 0-1 0-2-1-3l0-1z m68 105c0-8-7-15-16-15-4 0-8 1-10 4-3 3-5 7-5 11 0 9 7 15 15 15 9 0 16-6 16-15z"/>
<glyph glyph-name="info-rounded" unicode="&#81;" d="M256 512c-141 0-256-115-256-256 0-141 115-256 256-256 141 0 256 115 256 256 0 141-115 256-256 256z m13-362l-39 0 0 143 39 0z m-2 173c-5-5-11-7-18-7-6 0-13 2-17 7-5 5-7 11-7 17-1 7 2 13 7 18 4 5 11 7 17 7 7 0 13-2 18-7 5-5 7-11 7-18 0-6-2-12-7-17z"/>
<glyph glyph-name="instagram-rounded" unicode="&#82;" d="M323 363c-22 4-108 4-132 1-23-3-39-17-42-41-4-24-3-117 0-135 3-19 14-33 33-38 20-6 117-4 139-2 23 3 39 17 42 41 4 23 3 109 1 132-3 23-17 39-41 42z m-67-176c-38 0-69 31-69 69 0 38 31 69 69 69 38 0 69-31 69-69 0-38-31-69-69-69z m72 124c-9 0-17 8-17 16 0 9 8 17 17 17 8 0 16-8 16-17 0-8-8-16-16-16z m-72 201c-141 0-256-115-256-256 0-141 115-256 256-256 141 0 256 115 256 256 0 141-115 256-256 256z m130-334c-8-30-28-48-59-53-23-4-127-5-148 1-31 8-49 27-54 58-4 23-5 128 1 151 8 30 28 47 58 52 27 5 102 3 133 2 19-1 36-7 49-20 14-13 20-28 22-46 2-21 4-121-2-145z m-130 123c-24 0-44-20-45-45 0-24 20-44 45-44 24-1 44 19 44 44 1 24-19 44-44 45z"/>
<glyph glyph-name="iso-regulation" unicode="&#83;" d="M340 386l16 9 1 1c-17 12-35 20-54 25l-5-4c15-8 29-19 41-31l2 0z m-65-280c9 11 17 23 23 35l0 1c-12 3-25 4-38 4-1-13-1-25 0-39 0 0 11-2 15-1z m19 317l0 1c-24 6-53 5-78 0l4-3c21-14 54-12 74 2z m-12-320l10-4c6 2 11 6 16 9 9 6 18 14 26 22-9 4-18 8-28 10l-1-1c-6-12-14-23-22-34l-1-2z m-70 314l-4 4c-2 1-7-1-7-1-17-6-33-14-47-25l0 0c5-4 11-7 17-10 13 13 27 24 41 32z m69-8c8-12 16-24 23-36 10 2 19 5 28 9l1 1c-13 12-27 23-42 31-3-2-7-4-10-5z m-62 4c0 0-28-18-41-30l0-1c9-4 18-7 27-9l1 0c7 11 14 23 23 34l-10 6z m40-9c0-12-1-26 0-38 13 0 25 2 38 5-6 12-15 24-24 35-4 0-9-1-14-2z m-22 3c-9-11-17-23-24-36 6-2 14-3 20-4 7 0 12-1 19 0 0 12 0 26 0 38l-15 2z m-82-290l0-1c16-12 34-20 53-25l5 3c-15 10-28 20-41 33-6-3-12-7-17-10z m145-22l0-1c1-1 3-2 5-3l11 3c15 6 30 13 42 23-5 4-11 7-17 10-13-13-26-23-41-32z m-80-5l-2-2c24-6 51-5 75 0l2 1c-21 15-54 15-75 1z m180 205l-8 0c-13 0-23-9-23-21l0-39c0-12 10-21 23-21l8 0c13 0 23 9 23 21l0 39c0 12-10 21-23 21z m-400 195l0-468 512 0 0 468z m241-56c3 0 23 1 29 0l1 0c55-4 105-34 136-81-2-1-5 0-7 0-10 14-23 27-37 38l-2-1-16-9 0-1c4-4 7-8 10-13 4-4 7-9 10-14-2-1-4-1-7-1-6 9-13 18-20 26-10-5-20-9-30-11l-1-1 6-13c-2-1-4-1-6-1l-7 12-1 1c-13-4-27-5-40-6-1-2 0-4-1-7l-6 0c0 2 1 6-1 7-14 1-28 3-41 6-3-4-4-9-6-13-3 0-5 0-7 0l6 14-1 1c-10 2-20 6-30 10-7-8-13-16-19-25-2 0-5 0-7 0 5 10 13 19 20 28-6 3-13 7-19 11-6-5-12-10-18-16-6-7-13-15-18-22-2-1-5 0-8-1 32 49 83 78 138 82z m10-212c-20 8-42 13-62 20-15 6-31 18-34 34-3 18 1 37 16 48 23 17 58 16 84 5l10-6c1 3 0 7 1 10 10 0 23 0 33 0 0-19 1-35 1-54-11-1-23 0-33 0-10 14-26 20-42 22-8 0-18 3-22-5-1-2 0-4 2-6l4-2 56-16c19-5 37-23 39-42 3-20-6-38-23-48-24-12-55-10-79 0-4 2-8 4-11 6l-1-11-34 0c-1 18-1 40 0 58l31 0c2-2 3-5 5-7 15-17 39-21 60-15 2 1 4 2 4 4 0 2-2 5-5 5z m-206-7l22 0 1 3 0 78c-8 1-15 0-23 1 0 12 0 26 0 38l14 0 87 0c0-12 0-26 0-39l-23 0 0-1 0-80c7-1 15 0 23 0l0-38-101 0c-1 13-1 25 0 38z m186-136c-20 3-39 9-57 18l-1 1c-27 13-53 36-69 62 3 0 5 0 7 0 10-14 23-28 37-39 6 3 12 7 18 11-7 9-14 18-20 28 3 0 7 2 8-2 6-8 12-15 18-22l1-1c10 4 20 8 30 11l1 1-6 13c2 1 4 0 7 0l6-12c13 3 27 4 41 5 2 2 1 5 1 7l6 0c1-2 0-5 1-7 13-1 28-2 42-5l6 12 6 0c-1-4-4-9-5-13l1-1c10-3 19-7 30-11 7 8 13 17 19 25l7 0c-6-10-13-19-20-27 6-4 12-7 17-11l3 0c13 11 25 24 35 38 2 0 5 0 7 0-39-60-106-90-177-81z m251 170c0-42-34-76-76-76l-20 0c-42 0-76 34-76 76l0 11c0 42 34 76 76 76l20 0c42 0 76-34 76-76z m-251-146c-8 12-17 24-23 37l-1 0c-10-3-19-6-28-10l0-1c12-12 26-23 41-30 4 1 7 3 11 4z m22 5l0 38c-13 0-25-2-37-4l-2-1c7-12 15-24 24-36 5 2 10 2 15 3z"/>
<glyph glyph-name="linkedin-rounded" unicode="&#84;" d="M256 512c-141 0-256-115-256-256 0-141 115-256 256-256 141 0 256 115 256 256 0 141-115 256-256 256z m-61-385l-51 0 0 166 51 0z m-26 189c-16 0-30 13-30 30 0 17 14 30 31 30 16 0 30-13 30-30 0-17-14-30-31-30z m220-189l-51 0 0 81c0 19-1 44-27 44-27 0-31-21-31-43l0-82-52 0 0 166 50 0 0-22 0 0c10 17 29 27 49 27 53 0 62-35 62-80z"/>
<glyph glyph-name="lungs-dust" unicode="&#85;" d="M451 211c0 3 0 7-1 11-2 12-4 25-6 38-3 22-8 45-15 68-6 19-15 39-27 61-2 5-15 23-17 26-10 15-22 27-36 38-12 10-27 11-42 5-16-7-25-19-27-34-1-7-1-13 0-19 0-4 0-8 0-11 0-17-3-32-10-48 0 0-1-1-1-1-4 5-6 10-6 12-2 29-2 58-1 86 0 12 0 23 0 35 0 8-2 14-6 18-5 4-11 6-18 5-8 0-15 0-23 0-6 1-12-1-16-5-4-4-6-9-6-16 0-37 0-72 0-112l0-2c0-7 0-14-4-19 0 0-2-2-3-3-4 7-6 15-8 24l0 1c-4 15-4 31-3 45 1 12-3 24-12 33-8 9-20 14-30 14-18 0-29-8-37-16-28-27-50-61-66-105-8-23-14-46-18-72-3-16-6-34-8-51l-1-1c-2-19-4-39-2-59 1-15 2-27 5-39 1-6 10-54 64-58 13-2 27-3 40-3 16 0 32 1 47 4 20 3 34 14 43 31 10 20 12 42 13 62 1 37 0 70-4 99-1 2-1 4-1 5-1 6-1 12-4 18 0 0 0 0 0 0 5 5 11 10 15 18 3 5 6 5 8 6 3 0 6-1 9-7 4-6 9-12 15-17-3-6-3-12-4-17 0-2 0-3 0-5-5-30-6-62-5-101 1-19 3-41 14-61 8-17 22-27 41-31 8-1 15-2 23-3 19-28 51-47 87-47 58 0 105 47 105 105 0 42-25 78-60 95z m-167 130c7 17 11 34 11 52 0 4 0 8 0 12-1 6-1 11 0 17 1 10 7 18 18 22 10 4 19 3 27-3 13-9 23-21 32-34 6-8 16-22 17-25 12-22 20-40 25-59 7-22 13-44 16-66 2-12 4-25 6-38 0-1 0-2 0-3-9 3-19 5-29 5-10 0-19-2-28-4-8 19-20 34-37 50-7 6-14 13-21 19-11 10-21 19-31 30-4 4-8 10-12 15 2 3 4 6 6 9z m-86-187c-1-18-3-38-12-56-6-13-17-20-31-23-27-4-55-5-84-1-44 4-50 45-50 46 0 1 0 1 0 1-3 11-5 23-6 37-1 18 1 37 3 56l0 1c2 17 5 34 8 50 5 25 11 48 19 70 14 41 35 74 61 99 9 9 17 12 27 12 6 1 14-3 20-9 6-6 8-14 8-22-1-15-2-33 2-50l1-1c2-11 5-22 12-32-15-17-39-45-48-51-14-11-27-24-40-43-24-35-28-68-30-86-1-4-1-7-2-9-1-6 0-12 2-16 3-4 7-7 11-8 13-3 23 15 23 15 2 4 5 11 8 20 6 17 15 41 26 56 15 18 32 35 52 48 2 2 5 3 8 5 2 1 4 2 6 3 1-3 1-6 1-10 0-1 1-3 1-5 4-29 5-60 4-97z m51 147c-3 3-9 13-22 13 0 0 0 0-1 0-8 0-15-5-20-14-3-5-7-9-12-13-2-1-4-3-6-5-2-2-6-4-10-6-3-2-6-4-9-5-21-15-39-32-55-52-13-16-22-42-28-60-3-8-5-15-7-18-2-4-6-7-7-8 0 0-1 1-1 2-1 1-1 2-1 4 1 3 1 7 2 12 2 17 6 47 28 79 12 17 24 29 37 39 10 7 30 30 51 54 5 7 10 12 12 14 8 9 8 20 8 29l0 2c0 40 0 75 0 112 0 2 0 4 1 5 2 1 4 2 5 2 8-1 17-1 24 0 4 0 6-1 7-2 1 0 2-2 2-7 0-12 0-23 0-35-1-28-1-58 1-86 0-15 30-49 31-51 10-11 21-21 32-31 7-6 14-12 21-19 15-14 26-28 33-44-6-3-12-6-17-9-15 23-35 49-56 62-4 3-8 6-12 9-5 3-9 6-14 9-5 3-12 9-17 18z m51-226c-15 3-25 11-32 23-9 18-10 37-11 55-2 38 0 69 4 99 0 1 0 3 1 5 0 4 0 7 1 10 3-2 6-4 8-5 4-3 9-6 13-9 20-13 39-37 53-60-22-19-35-47-35-77 0-15 3-29 9-42-4 0-7 1-11 1z m107-51c-29 0-54 13-71 33-4 5-7 10-10 15-7 13-11 28-11 44 0 26 11 49 28 66 4 3 8 7 12 9 5 3 9 6 14 8 5 2 9 4 14 5 8 2 16 3 24 3 11 0 21-2 30-5 6-2 11-4 16-7 27-16 46-45 46-79 0-51-41-92-92-92z m-10 86c-5-1-8-5-7-10 1-4 5-8 9-7 5 1 8 5 8 10-1 4-6 7-10 7z m-19 7c-1 4-5 8-10 7-5-1-8-5-7-10 1-4 5-8 10-7 4 1 7 5 7 10z m45 13c5 1 8 5 7 10-1 4-5 7-10 7-4-1-7-5-7-10 1-5 5-8 10-7z m0 49c-5-1-8-5-7-10 0-4 5-7 9-7 5 1 8 5 7 10 0 5-4 8-9 7z m-42-91c-5-1-8-6-7-10 1-5 5-8 10-7 4 1 7 5 7 10-1 4-5 7-10 7z m12 48c5 1 8 5 7 10-1 4-5 7-9 7-5-1-8-5-8-10 1-5 5-8 10-7z m-47 11c-5-1-8-5-7-10 0-5 4-8 9-7 5 1 8 5 7 10-1 4-5 7-9 7z m95-23c-4 0-8-4-8-9 0-4 4-8 8-8 5 0 9 3 9 8 0 5-4 9-9 9z m-18-27c-5 0-8-3-8-8 0-5 3-8 8-9 5 0 9 4 9 9 0 4-4 8-9 8z m37-7c-5 0-8-4-8-9 0-5 3-8 8-8 5 0 8 3 8 8 0 5-3 9-8 9z"/>
<glyph glyph-name="map-placeholder" unicode="&#86;" d="M510 53l0 2c-1 16-2 31-4 46l0 1c-1 7-1 13-2 20l-9 93c-2 23-4 46-6 68l-2 20c0 8-5 15-13 19-19 10-39 21-59 31l-30 15c-4 4-10 4-16 3l-5-2c-10-4-19-8-27-12 7 12 11 26 10 41 0 50-41 88-95 88l-4 0c-3 0-6-1-10-2-28-4-53-23-65-49-12-25-11-54 2-78l-3 2c-3 1-6 2-9 3l0 1c-4 1-10 3-14 6-8 3-16 3-24-1-21-12-54-29-86-46-8-3-14-11-14-20-4-36-7-71-10-103-1-13-2-26-3-38l-2-13c-1-19-3-37-5-56l-1-8c-1-12-2-25-3-37-1-7 2-14 7-18 6-4 14-4 20-1 2 1 5 2 8 3l19 10c23 11 43 20 64 30 2 2 4 2 7 1 16-6 32-12 48-18l4-2c20-7 42-15 63-23 10-3 20-3 29 0 19 7 39 14 58 21l5 2c18 7 36 13 53 19 3 2 6 1 9 0 21-11 42-21 61-30l22-10c5-3 11-5 17-5 3 0 6 1 8 2 8 5 8 15 7 25z m-321 374c10 21 30 36 52 40 3 1 6 1 9 1l3 1c43 0 76-31 77-72 0-12-3-24-10-34-9-16-19-32-29-49-11-18-22-37-33-55-1-2-2-3-2-3-1 0-1 1-2 2-5 9-10 18-15 26l-2 2c-15 25-30 51-45 78-12 19-13 43-3 63z m-13-72c16-27 32-53 47-79l2 1-2-1 16-27c3-6 10-11 17-11 8 0 14 5 17 11 11 19 22 38 33 56l3 5c9 14 17 28 26 42l7-13 3 2c8 4 16 8 25 11l5 2c1-1 1-1 2-1l26-14c23-12 44-23 63-33 2-1 4-3 4-5l1-20c2-22 5-45 7-68 1-19 3-37 5-56l4-37c0-7 1-13 1-20l2 0-2-1c2-14 3-31 5-48 0-2 0-5 0-8-3 1-5 2-8 3l-22 11c-23 11-42 20-61 29-7 4-15 4-23 1-17-6-36-13-53-19l-1 0c-20-8-40-15-60-23l0 186-18 0 0-185c-22 8-44 16-65 23l-51 19c-6 3-14 2-20-1-19-9-39-19-56-27l-28-14c-2 0-4-1-6-2 0 0-1-1-2-1 0 1 0 1 0 2 1 14 2 29 3 40l1 5c1 17 3 35 4 52l6 55c3 30 6 63 9 104 0 2 2 4 5 5 30 16 61 32 87 46 2 2 5 2 7 0 5-2 10-4 15-6l1-1c2-1 5-2 7-3l4-1 7 16c0-1 1-2 1-3z m-58-40c-2-28-3-69-5-109l0-1c-2-35-4-75-5-102l-1-4 18-1 0 4c2 27 4 67 5 103l0 2c2 37 4 79 6 106l0 5-18 1 0-4z m259-109l0 0c2-35 4-75 5-102l1-6 17 1 0 4c-2 26-3 63-5 99l0 7c-2 38-4 78-5 106l-1 4-17-2 0-4c2-27 4-69 5-107z m-121 139l1 0c27 0 49 22 50 49l0 0c0 14-6 27-15 36-10 10-22 15-36 16-13-1-26-6-35-15-10-10-15-23-16-36 1-28 23-50 51-50z m-33 50c0 9 4 17 10 23 6 6 14 9 23 9 9 0 17-3 24-10 6-6 9-14 9-23 0-8-4-17-10-23-7-6-15-9-24-9-18 0-32 15-32 33z"/>
<glyph glyph-name="pill" unicode="&#87;" d="M349 257c0 0 0 0 0 0l0 162c0 25-9 48-27 66-18 17-41 27-66 27-52 0-93-42-93-93l0-326c0-51 41-93 93-93 51 0 93 42 93 93l0 163c0 0 0 1 0 1z m-167 162c0 41 33 74 74 74 20 0 38-8 53-22 14-14 21-33 21-52l0-153-148 0z m148-326c0-41-33-74-74-74-41 0-74 33-74 74l0 154 148 0 0-154z"/>
<glyph glyph-name="placeholder-new" unicode="&#88;" d="M256 0l-10 7c-7 6-187 146-187 308 0 108 88 197 197 197 109 0 197-89 197-197 0-162-180-302-187-308z m0 480c-91 0-165-74-165-165 0-126 128-243 165-274 37 31 165 148 165 274 0 91-74 165-165 165z m0-272c-59 0-107 48-107 107 0 28 11 55 31 75 21 20 47 31 76 31l0 0c28 0 55-11 75-31 20-20 31-47 31-75 0-59-47-107-106-107z m0 182l0 0c-20 0-39-8-53-22-14-15-22-33-22-53 0-42 34-75 75-75 41 0 75 34 75 75 0 20-8 39-22 53-14 14-33 22-53 22z"/>
<glyph glyph-name="question-rounded" unicode="&#89;" d="M421 444c-44 44-103 68-165 68-129 0-234-105-234-234 0-66 28-129 77-173l-50-105 135 56c23-8 48-11 72-11 129 0 234 104 234 233 0 63-25 121-69 166z m-328-403l33 70-7 5c-43 37-69 88-74 144-5 57 13 111 49 155 42 49 102 75 162 75 49 0 97-17 137-50 89-76 100-210 25-299-40-47-100-75-162-75-24 0-47 4-69 12l-4 1-90-37z m172 151c-4 4-9 6-14 6-5 0-10-2-14-6-4-4-6-9-6-14 1-11 9-19 20-20 5 0 10 3 14 6 7 7 8 20 0 27l0 1z m-14 3c0 0 0 2 0 2z m-27 186c9 0 15 0 20 0 19 1 38-3 54-13 13-8 20-23 20-38 1-16-7-31-20-41-17-10-36-15-55-14l-11 0 0-58 23 0 1 35 2 0c24 1 47 10 66 25 15 14 23 34 22 54 1 22-9 43-27 56l-1-2 1 2c-21 15-47 23-73 21-8 0-16 0-24-1l-5-1 2-26 5 1z"/>
<glyph glyph-name="quote-left" unicode="&#90;" d="M414 61c-13 0-27 3-39 7-16 5-30 14-41 25-19 19-32 42-40 68-3 12-5 24-6 36-1 13-1 26 0 39 2 14 5 28 8 41 8 25 19 48 35 70 19 27 43 51 70 70 18 13 37 24 57 33 1 1 2 1 2 0 0 0 1 0 1 0 7-12 15-23 23-34 1-2 1-3-1-4-23-11-43-26-61-44-22-21-38-46-48-74-4-12-7-25-8-37-1-1-1-2 0-2 1-1 1 0 2 0 14 7 30 10 46 8 12-1 24-4 36-9 50-20 75-78 54-129-1-3-3-6-5-10-5-11-13-21-21-30-12-11-27-18-42-21-7-2-15-2-22-3m-413 155c0 24 4 48 12 70 11 31 28 59 50 84 24 28 54 51 86 69 8 4 15 8 22 11 2 1 3 0 3-1l20-28c1-2 2-4 4-6 1-1 1-2-1-2-16-9-31-19-44-30-17-13-32-29-44-48-13-19-22-40-27-63-1-5-2-9-3-14 0-1 0-3 1-3 0-1 1 0 2 0 9 5 19 7 29 8 10 1 19 0 29-2 33-5 62-26 76-57 5-11 8-23 9-35 1-21-4-42-15-60-10-17-24-30-42-39-10-4-20-7-31-8-30-3-61 6-84 26-8 7-15 15-21 24-10 14-19 31-24 48-2 10-4 21-5 32-1 8-2 16-2 24"/>
<glyph glyph-name="share-new" unicode="&#48;" d="M409 158c-22 0-42-9-57-24l-173 100c2 6 3 12 3 18 0 8-1 15-4 22l176 102c15-13 34-22 55-22 43 0 78 35 78 78 0 44-35 79-78 79-44 0-79-35-79-79 0-6 1-12 3-18l-179-102c-13 11-31 19-51 19-43 0-78-35-78-79 0-43 35-78 78-78 21 0 40 8 54 22l175-101c-1-5-2-10-2-15 0-44 35-79 79-79 43 0 78 35 78 79 0 43-35 78-78 78z"/>
<glyph glyph-name="small-space" unicode="&#49;" d="M266 377c26 0 47 21 47 47 0 26-21 47-47 47-26 0-47-21-47-47 0-26 21-47 47-47z m-29 47c0 16 13 29 29 29 16 0 29-13 29-29 0-16-13-29-29-29-16 0-29 13-29 29z m-56-1l-5-1c-11-4-17-17-13-28l17-47c0-4 2-8 4-10 2-3 4-5 6-7l33-32 0-91c0-12 5-23 14-30l0-119c0-15 12-27 27-27l8 0c15 0 27 12 27 27l0 119c8 7 13 16 14 26 5-4 11-7 18-6l5 1c11 1 19 10 19 20l0 0c0 0 0 4 0 4 0 0 0 0 0 0l0 3c0 0-7 53-7 53l0 1c-1 4-2 7-4 10l-37 69-1 2c-8 9-19 15-32 15l-12 0c-13 0-25-6-32-16l-5 4-17 47c-4 12-16 17-27 13z m70-234c-6 4-10 11-10 18l0 98-39 39-2 1c0 0-1 0-1 1l-1 1c0 1 0 1 0 2l-18 51c-1 2 0 4 2 5l5 1c0 0 1 1 1 1 1 0 3-1 3-3l18-50 29-28 3 15c3 10 11 16 21 16l12 0c7 0 13-3 18-8l36-68c1-2 2-4 2-5l7-57c0-1-1-3-3-4l-5 0c-2-1-4 1-4 3l-7 55-7 13-16-3 0-76c0-7-3-14-10-18l-4-3 0-128c0-5-4-9-9-9l-8 0c-5 0-9 4-9 9l0 128-4 3z m-246 319l0-163 19 0 0 144 464 0 0-466-464 0 0 133-19 0 0-152 502 0 0 504z"/>
<glyph glyph-name="steering-wheel" unicode="&#50;" d="M312 234c0 31-25 56-56 56-31 0-56-25-56-56 0-31 25-56 56-56l0 0c15 0 29 6 40 17 10 11 16 25 16 39z m-17 0c0-21-17-38-39-38-21 0-38 17-38 38 0 21 17 39 38 39l0 0c21 0 38-17 38-39z m40-22c-5-19-18-36-34-47l-4-2-18-115 12 2c97 17 167 97 173 195l0 12-128-40-1-5z m110 21c-9-80-67-145-145-163l13 83c18 12 31 30 37 50z m67 27c0 15-2 30-4 45l-2 6c-14 64-52 120-107 157-56 38-124 52-192 39-101-19-180-97-201-198l-1 0-1-7c-3-14-4-29-4-44l0-2c0 0 0-1 0-1 0-69 27-133 76-181 48-48 112-74 180-74l1 0c69 0 133 27 181 76 46 47 73 109 74 176l0 0 0 8z m-495 2c1 10 1 21 3 32l1 5c18 97 93 172 190 191 62 12 126-1 179-36 52-36 88-90 100-153l1-4c1-5 2-9 2-14l0 0c0 0 1-23 1-23 0-1 1-2 1-3 0-64-25-124-70-169-44-45-104-70-168-71 0 0-1 0-1 0-63 0-123 25-168 69-45 45-70 105-71 169l0 3c0 0 0 4 0 4z m206-212l12-2-20 115-3 2c-17 11-29 27-35 46l-1 5-129 39 1-12c6-98 78-177 175-193z m-61 152c7-20 20-37 37-49l14-83c-78 17-136 82-146 161l95-29z m36 91c32 31 84 31 116-1l3-2 144 3-2 11c-23 94-106 160-203 160l-1 0c-98 0-181-67-202-162l-3-11 145-2z m-126 15c24 83 97 138 183 139l0 0c87 0 160-55 184-137l-115-3c-39 36-98 36-136-1l-116 2z"/>
<glyph glyph-name="system-calendar" unicode="&#51;" d="M413 418l0-17c0-30-24-55-55-55-30 0-55 25-55 55l0 17-99 0 0-17c0-20-10-38-27-48-18-10-39-10-56 0-17 10-28 28-27 48l0 17-87 0 0-412 493 0 0 412z m-247-11c0-10-8-18-18-18-10 0-18 8-18 18l0 87c0 10 8 18 18 18 10 0 18-8 18-18z m209 0c0-10-8-18-18-18-10 0-18 8-18 18l0 87c0 10 8 18 18 18 10 0 18-8 18-18z"/>
<glyph glyph-name="system-check" unicode="&#52;" d="M478 419c14-14 14-36 0-50l-22-23 0 0-253-253c-14-14-36-14-50 0l-119 119c-14 14-14 36 0 50l1 1c14 14 36 14 50 0l93-93 227 227 0 0 23 22c13 14 36 14 50 0z"/>
<glyph glyph-name="system-chevron-down" unicode="&#53;" d="M494 386c-12 12-32 12-45 0l-193-193-193 193c-13 12-33 12-45 0-12-12-12-32 0-44l216-216c12-12 32-12 44 0l216 215c12 13 12 33 0 45z"/>
<glyph glyph-name="system-chevron-left" unicode="&#54;" d="M386 18c12 12 12 32 0 45l-193 193 193 193c12 13 12 33 0 45-12 12-32 12-45 0l-215-216c-12-12-12-32 0-44l215-216c13-12 33-12 45 0z"/>
<glyph glyph-name="system-chevron-right" unicode="&#55;" d="M126 494c-12-12-12-32 0-45l193-193-193-193c-12-13-12-33 0-45 12-12 32-12 45 0l215 216c12 12 12 32 0 44l-215 216c-13 12-33 12-45 0z"/>
<glyph glyph-name="system-chevron-up" unicode="&#56;" d="M18 126c12-12 32-12 45 0l193 193 193-193c13-12 33-12 45 0 12 12 12 32 0 45l-216 215c-12 12-32 12-44 0l-216-215c-12-13-12-33 0-45z"/>
<glyph glyph-name="system-clock" unicode="&#57;" d="M256 503c-136 1-247-110-247-247-1-136 110-247 247-247 136 0 247 110 247 247 0 0 0 0 0 0 0 137-110 247-247 248z m25-253l0-1-1 0-130-130-31 30 119 119 0 105 43 0 0-123z"/>
<glyph glyph-name="system-close" unicode="&#33;" d="M298 256l197 197c12 11 12 29 1 41-11 12-30 13-42 2 0-1-1-1-1-2l-197-197-197 197c-11 12-30 13-42 2-12-12-12-30-1-42 0 0 1-1 1-1l197-197-197-197c-11-11-12-30-1-42 12-12 30-12 42-1 0 1 1 1 1 1l197 197 197-197c11-12 30-12 42-1 11 12 12 30 0 42 0 0 0 1 0 1z"/>
<glyph glyph-name="system-delete" unicode="&#34;" d="M185 448c0 10 0 19 0 27 0 15 12 28 27 28l1 0c28 0 57 0 86 0 15 0 28-12 28-27 0 0 0-1 0-1 0-9 0-18 0-28 30 0 59 1 87 0 17 2 33-9 36-26 0-8 0-17 0-26l-388 0c0 9 0 18 1 27 2 16 16 26 31 26 30 0 60 0 91 0z m123 0c0 9 0 16 0 24 0 6-4 11-10 12-1 0-2 0-3 0-26 0-52 0-78-1-5-1-9-4-11-9-1-9-1-17 0-26l102 0z m-206-87l0-316c0-27 11-36 42-36l223 0c32 0 42 9 42 37l0 315-307 0z"/>
<glyph glyph-name="system-download" unicode="&#35;" d="M236 96l0 0c0 0 0 0 0 0 11-11 29-11 40 0l195 195c11 11 11 29 0 40-11 11-29 11-40 0l-146-146 0 298c-1 16-14 28-29 28-16 0-28-12-29-28l0-298-146 147c-11 11-29 10-40-1-11-11-11-29 0-40z m215-39l-390 0c-10 0-20-5-25-14-6-9-6-20 0-29 5-9 15-14 25-14l390 0c16 0 28 13 28 29 0 15-12 28-28 28z"/>
<glyph glyph-name="system-edit" unicode="&#36;" d="M261 408l-176-181-76-218 218 71 176 176z m223 14l-62 62c-21 24-57 26-81 4-1-1-3-2-4-4l-52-52 142-147 57 57c12 11 19 26 19 42-1 15-8 29-19 38z"/>
<glyph glyph-name="system-mail" unicode="&#37;" d="M231 260c16-8 34-8 50 0l222 147c-7 22-28 36-51 36l-392 0c-23 0-44-14-51-36z m65-27c-24-15-56-15-80 0l-207 138 0-249c0-29 24-53 53-53l388 0c29 0 53 24 53 53l0 249z"/>
<glyph glyph-name="system-menu" unicode="&#38;" d="M135 445c0-38-30-68-68-68-37 0-67 30-67 68 0 37 30 67 67 67 38 0 68-30 68-67z m0-189c0-37-30-67-68-67-37 0-67 30-67 67 0 37 30 67 67 67 38 0 68-30 68-67z m0-189c0-37-30-67-68-67-37 0-67 30-67 67 0 38 30 68 67 68 38 0 68-30 68-68z m188 378c0-38-30-68-67-68-37 0-67 30-67 68 0 37 30 67 67 67 37 0 67-30 67-67z m0-189c0-37-30-67-67-67-37 0-67 30-67 67 0 37 30 67 67 67 37 0 67-30 67-67z m0-189c0-37-30-67-67-67-37 0-67 30-67 67 0 38 30 68 67 68 37 0 67-30 67-68z m189 378c0-38-30-68-67-68-38 0-68 30-68 68 0 37 30 67 68 67 37 0 67-30 67-67z m0-189c0-37-30-67-67-67-38 0-68 30-68 67 0 37 30 67 68 67 37 0 67-30 67-67z m0-189c0-37-30-67-67-67-38 0-68 30-68 67 0 38 30 68 68 68 37 0 67-30 67-68z"/>
<glyph glyph-name="system-phone" unicode="&#39;" d="M9 351c0 15 3 30 9 44 16 33 39 63 69 85 14 10 17 10 25 4 2-1 3-3 4-5 26-29 51-59 75-89 8-9 6-16-3-24-15-15-30-30-45-46-6-6-7-17-1-23 41-62 97-113 162-148 16-8 21-8 32 5 11 14 20 28 30 42 10 14 18 16 32 7 32-20 63-41 95-61 4-3 7-7 10-11l0-11c-2-3-4-5-7-8-21-30-48-56-79-77-16-11-37-14-56-8-118 30-221 101-291 201-26 38-47 79-61 123z"/>
<glyph glyph-name="system-placeholder" unicode="&#40;" d="M256 503c-104 0-188-84-188-188 0-162 188-306 188-306 0 0 188 144 188 306 0 104-84 188-188 188m0-282c-52 0-94 42-94 94 0 52 42 94 94 94 52 0 94-42 94-94 0 0 0 0 0 0 0-52-42-94-94-94"/>
<glyph glyph-name="system-plus" unicode="&#41;" d="M278 235l204 0c12 0 21 9 21 21 0 12-9 22-21 22l-204 0 0 204c0 12-10 21-22 21-12 0-22-9-22-21l0-204-204 0c-12 0-21-10-21-22 0-12 9-22 21-22l204 0 0-204c0-12 10-21 22-21 12 0 22 9 22 21l0 204z"/>
<glyph glyph-name="system-search" unicode="&#42;" d="M390 175c12-12 24-23 35-35 22-22 44-44 66-66 13-12 16-32 6-47-9-15-27-22-44-16-6 2-12 6-16 11l-97 96c-1 1-2 2-3 4-51-35-114-46-173-30-49 12-91 42-119 84-65 96-40 226 55 291 75 50 173 48 245-7 43-32 71-80 79-133 9-53-3-108-34-152z m-39 119c0 73-59 132-132 133-74 0-133-59-134-132 0-74 59-133 133-134 73 0 132 59 133 133z"/>
<glyph glyph-name="system-share" unicode="&#43;" d="M397 0c-24 4-45 19-56 40-8 13-11 29-8 44 1 5-2 10-7 12-56 33-112 65-167 98-5 4-11 3-15 0-25-20-58-22-85-5-26 14-42 44-37 74 3 31 24 57 54 65 23 8 48 3 68-12 4-4 10-4 15-1 55 33 110 65 165 97 4 3 6 7 7 12-7 41 22 80 64 87 1 0 1 1 2 1l20 0c1-1 2-1 3-2 33-5 58-31 63-63 4-30-9-60-34-77-28-17-63-16-89 4-4 4-10 4-14 0-52-30-103-61-156-91-11-6-20-12-15-27 1-3 0-7-1-10-1-7 1-11 8-14 55-32 110-64 164-96 6-5 14-4 19 1 29 20 68 17 93-8 26-24 31-62 13-92-12-20-31-33-54-37z"/>
<glyph glyph-name="system-user" unicode="&#44;" d="M256 9l-239 0c-8 0-8 0-8 8 0 16 0 32 0 48-1 24 10 47 30 62 22 19 49 33 77 41 44 16 91 25 138 26 39 0 77-6 115-17 31-8 60-20 87-37 16-9 29-23 39-39 5-9 8-20 8-30 0-19 0-38 0-56 0-5-2-6-6-6-67 0-135 0-202 0l-39 0 0 0z m124 371c-1-69-56-124-124-124-68 1-123 56-123 124 0 68 55 123 123 123 0 0 0 0 0 0 68 0 124-55 124-123 0 0 0 0 0 0z"/>
<glyph glyph-name="target" unicode="&#45;" d="M264 318l-16 0 0-54-54 0 0-16 54 0 0-54 16 0 0 54 54 0 0 16-54 0z m204-53c-2 54-24 104-61 142-38 38-88 59-142 62l0 43-18 0 0-43c-53-3-103-26-140-63-37-38-59-88-61-141l-46 0 0-18 47 0c6-108 92-194 200-200l0-47 18 0 0 47c53 2 103 24 140 61 38 37 60 86 63 139l44 0 0 18-44 0z m-19-18c-6-100-85-177-184-182l0 56-18 0 0-55c-98 5-176 83-182 181l55 0 0 18-55 0c4 100 82 179 182 185l0-55 18 0 0 55c100-4 181-85 185-185l-56 0 0-18 55 0z"/>
<glyph glyph-name="test-tube" unicode="&#46;" d="M361 495c-20 10-42 16-65 17-28 0-39-10-43-20l-1-1c0 0 0-1 0-1l-60-129c0-1-103-224-103-224-5-12-9-26-9-40 0-26 10-50 29-68 18-19 42-29 68-29 37 0 72 22 88 56l162 352c1 1 2 2 2 3 11 25-18 61-68 84z m-161-360l8 17-4 2c-45 20-63 48-60 57l1 1c0 0 0 1 0 1l20 44c11-19 34-37 63-50l4-2 8 17-4 2c-43 20-62 46-60 57l21 46c12-18 34-37 63-50l5-2 7 17-4 2c-43 20-62 46-59 57l49 107c11-18 34-36 63-49 13-7 27-12 42-14 2-1 4-1 7-1l0 0c3-1 6-1 9-1l2-1c1 0 3 0 4 0l1 0c1 0 1 0 2 0 4 0 8 0 12 1l-151-329c-19-39-65-56-104-38-39 18-56 64-38 104l26 57c11-19 34-37 63-50l4-2z m129 291c-24 10-38 22-45 30-11 10-16 21-15 28l1 1c0 0 0 1 1 2 3 4 12 6 22 6 0 0 3 0 3 0 20-1 39-6 57-15 43-19 64-48 59-59 0 0 0 0-1-1-3-6-17-10-38-6-14 2-29 6-44 14z"/>
<glyph glyph-name="twitter-rounded" unicode="&#47;" d="M183 342l126-171 19 0-124 171z m73 170c-141 0-256-115-256-256 0-141 115-256 256-256 141 0 256 115 256 256 0 141-115 256-256 256z m43-362l-54 74-63-74-35 0 81 96-85 116 71 0 50-68 57 68 35 0-76-90 89-122-70 0z"/>
<glyph glyph-name="whatsapp-rounded" unicode="&#58;" d="M237 385c-71-11-119-77-108-148 2-15 7-29 15-42 4-8 5-17 2-25-3-11-6-22-9-35 15 4 29 8 44 12 3 1 7 0 10-2 26-15 56-21 86-16 70 11 119 78 108 148-11 71-78 119-148 108z m64-202c-1 0-3 0-4 0-30 1-78 25-111 82-13 19-10 44 7 60 5 4 13 5 20 3 1-1 3-3 4-5 4-10 9-20 12-30 2-6-1-11-9-20-3-2-3-6-1-8 12-22 31-38 54-47 2-1 6 0 8 3 12 15 13 19 20 16 31-15 33-16 34-19 0-19-15-35-34-35z m-45 329c-141 0-256-115-256-256 0-141 115-256 256-256 141 0 256 115 256 256 0 141-115 256-256 256z m73-391c-44-24-97-25-142-2-3 1-7 1-10 1-41-11-68-18-76-20 2 7 3 13 5 19 5 18 10 37 15 56 1 3 0 6-1 9-40 75-12 169 63 209 76 40 169 12 210-63 40-75 11-169-64-209z"/>
<glyph glyph-name="youtube-rounded" unicode="&#59;" d="M256 512c-141 0-256-115-256-256 0-141 115-256 256-256 141 0 256 115 256 256 0 141-115 256-256 256z m128-330c-3-6-8-11-15-15-18-9-198-9-221-1-11 3-18 10-21 20-10 25-12 130 5 150 6 7 14 11 23 12 47 5 193 5 209-2 10-3 17-9 21-19 10-26 10-120-1-145z m-162 33c29 15 57 29 85 44-28 15-56 29-85 44z"/>
<glyph glyph-name="enabled-eye" unicode="&#60;" d="M506 263c-5 6-113 144-250 144-137 0-245-138-250-144l-5-7 5-7c5-6 113-144 250-144 137 0 245 138 250 144l5 7-5 7z m-250-135c-109 0-203 101-225 128 22 27 116 128 225 128 109 0 203-101 225-128-22-27-116-128-225-128z m0 217c-4 0-8 0-13-1l-3 0 0-64-70 0-1-3c-1-7-2-14-2-21 0-49 40-89 89-89 49 0 89 40 89 89 0 49-40 89-89 89z"/>
<glyph glyph-name="ekg-heart-card" unicode="&#61;" d="M125 46c0-5 3-9 8-9l265 0c5 0 9 4 9 9l0 45c0 5-4 9-9 9l-265 0c-5 0-8-4-8-9z m17 37l247 0 0-29-247 0z m-51 398c0 8 6 14 13 14l323 0c7 0 13-6 13-14l0-131 17 0 0 131c0 17-13 31-30 31l-323 0c-17 0-30-14-30-31l0-131 17 0z m349-450c0-8-6-14-13-14l-323 0c-7 0-13 6-13 14l0 184-17 0 0-184c0-17 13-31 30-31l323 0c17 0 30 14 30 31l0 184-17 0z m-315 184l0-41c0-5 3-9 8-9l265 0c5 0 9 4 9 9l0 41-18 0 0-33-247 0 0 33z m282 135l0 89c0 5-4 9-9 9l-265 0c-5 0-8-4-8-9l0-89 17 0 0 81 247 0 0-81z m-181-128c4-3 9-7 13-11 6-4 11-9 16-14 4-3 8-4 12-4 4 0 8 1 11 4 5 4 10 8 15 13l7 5c3 3 10 9 17 15 12 10 25 22 31 27 4 3 4 9 1 12-3 4-9 4-12 1-6-5-20-17-31-27-7-6-14-11-18-15l-6-5c-5-5-10-9-15-13-6 5-11 10-17 15-4 3-8 7-13 11l-6 5c-6 6-13 12-20 18-3 3-9 3-12 0-3-4-3-9 0-13 7-6 14-12 21-18l6-5z m142 83c0 0 1 0 1 0 4 0 8 3 9 8 1 12 0 24-5 37-8 18-21 30-38 35-23 6-43 0-59-17-2-3-6-7-9-12-7 12-16 20-27 26-11 5-22 7-35 4-25-4-44-25-48-51-1-6-1-13-1-19 0-5 5-8 9-8 5 1 9 5 8 10 0 4 0 9 1 14 3 19 17 34 34 37 9 2 17 1 24-3 8-4 15-10 21-21 2-2 3-5 5-7 1-1 3-1 4-2 6-2 13 0 17 6 1 1 2 3 2 4 2 3 4 7 8 11 12 12 25 16 41 11 12-3 21-12 27-24 4-10 5-19 4-29-1-4 2-9 7-10z m118-12l-176 0-7 21c-2 4-5 6-9 6 0 0 0 0 0 0-4 0-7-3-8-6l-9-32-9 36c-1 4-5 7-8 7-4 0-7-2-9-5l-11-27-132 0-17 32c-2 3-5 5-8 5-3 0-6-2-8-5l-16-34-33 0c-5 0-9-4-9-8 0-5 4-9 9-9l38 0c3 0 6 2 8 5l11 23 12-22c1-2 4-4 7-4l144 0c3 0 6 2 8 5l3 8 11-42c0-4 4-7 8-7l0 0c4 0 7 3 8 7l11 37 1-2c1-4 4-6 8-6l182 0c5 0 9 4 9 9 0 4-4 8-9 8z"/>
<glyph glyph-name="ekg-heart" unicode="&#62;" d="M441 212c-18-19-38-38-57-55-15-14-32-28-46-40l-3-3c-7-5-13-11-20-17-5-4-10-9-16-14-11-10-23-20-35-30-5-4-12-4-17 1-13 11-26 22-39 33l-1 0c-10 9-21 19-32 28-4 4-8 7-12 11l-3 2c-16 14-32 28-48 43-20 19-39 38-56 59-4 6-8 11-12 17-1 2-3 3-5 4-2 0-4 0-6-2-2-1-3-3-3-5-1-2 0-4 1-6 4-6 8-12 13-18 17-22 37-41 57-61 16-15 33-30 49-43l3-4c4-3 8-6 12-9 10-10 21-19 32-28l0-1c13-10 26-22 39-33 5-5 12-7 20-7 7 0 14 2 19 7 12 10 24 20 35 30 5 5 11 9 16 14 7 6 14 12 21 18l1 1c16 14 32 27 47 41 19 18 40 36 58 57 1 1 2 3 2 5 0 3-1 5-3 6-3 3-8 3-11-1z m-424 63c1 0 2 0 3 1 4 1 6 6 5 10-9 24-11 48-7 73 9 52 46 92 93 101 25 4 47 1 67-9 22-11 40-29 55-55 3-6 7-11 11-15 1-1 3-2 5-3 9-3 20 0 25 9 4 6 4 8 5 8 4 10 10 19 21 30 31 34 68 44 111 32 34-10 59-32 73-68 13-30 15-62 7-92-2-4 1-9 5-10 4-1 9 1 10 5 10 35 7 69-7 104-16 40-44 66-83 77-50 14-93 1-128-37-12-12-19-23-24-34 0 0-1-1-4-6-1-2-3-3-5-3-3 3-6 7-8 11-17 29-37 49-62 62-23 11-49 15-77 9-54-9-96-55-106-113-4-28-2-55 7-81 2-4 5-6 8-6z m487-5l-115 0-14 56c-1 4-5 6-8 6-4 0-7-3-8-7l-21-106-33 176c0 4-4 6-7 6-4 1-8-2-9-6l-31-125-82 0-12 49c-1 3-4 6-7 6-4 0-7-2-8-5l-19-50-122 0c-4 0-8-3-8-8 0-4 4-8 8-8l128 0c3 0 6 2 8 6l10 29 7-29c1-3 5-6 8-6l95 0c4 0 7 3 8 6l24 96 34-181c0-4 4-7 8-7 4 0 7 3 8 7l22 113 7-28c1-3 4-6 8-6l121 0c4 0 8 4 8 8 0 5-4 8-8 8z"/>
<glyph glyph-name="ear-audiometry" unicode="&#63;" d="M352 485c-33 21-69 30-107 26-60-6-104-37-132-89-2-5-2-8-2-11 0-1 0-2 0-3 0-4 3-8 7-9 5 0 9 3 9 7 1 2 1 3 1 4 0 2 0 3 0 4 25 48 64 75 118 81 35 3 68-4 97-24 58-38 83-109 63-177-10-31-29-55-47-75-7-8-15-16-22-24-9-9-18-18-26-27-24-27-39-60-50-88-12-26-24-41-41-51-28-17-56-17-83-1-26 16-38 40-38 72 0 5-3 9-8 9-5 0-8-4-8-8-1-39 15-69 46-87 16-9 32-14 49-14 17 0 34 5 51 15 25 15 38 39 47 59 14 33 27 60 47 83 8 9 17 18 25 26 8 8 16 16 24 25 19 21 39 47 50 81 22 75-6 154-70 196z m-210-310c1 4 0 9-5 10-4 2-9 0-10-4l-2-2c-3-9-8-19-6-31 3-20 22-37 41-37 1 0 2 0 3 0 21 2 34 13 40 32 2 10 5 16 8 22 5 11 14 17 29 21l4 1c11 3 22 6 32 12 24 17 37 41 40 72 3 37-12 67-43 89-20 13-43 18-70 14l-3-1c-4-1-6-1-9-1 0 0 0 0 0 0-1 9 4 16 11 24 18 21 44 30 70 26 26-5 48-23 58-48 3-9 5-18 5-26 0-5 3-9 8-9 4 0 8 4 8 9 0 10-2 21-6 32-12 31-38 52-70 58-32 5-64-6-86-31-8-10-17-24-14-41-1 0-1-1-1-1-10-13-7-26-5-37l1-2c2-10 6-25 18-36 1-1 0-3 0-4 0-3 0-5 0-8 1-5 5-8 10-7 4 1 7 5 7 9-1 1 0 3 0 4 0 1 0 2 0 2 2 0 4 0 7 0 4-1 8-4 10-8 2-3 2-8 0-13-3-8-9-10-21-10-5 1-8-3-9-8 0-4 4-8 8-8 1 0 3 0 4 0 12 0 26 3 33 20 4 10 4 19-1 27-4 8-11 14-21 16-5 1-10 1-16 0-6 7-10 15-13 27l0 3c-3 10-4 17 1 23 0 1 1 1 1 1 6-1 11 0 15 1l3 0c22 4 41 1 57-11 27-18 39-42 37-74-3-26-13-46-33-59-8-5-17-7-26-10l-5-1c-19-5-32-15-40-29-4-9-7-18-9-25-4-13-12-19-25-21-12-1-25 10-27 23-1 8 2 14 6 22l1 2z"/>
<glyph glyph-name="clip" unicode="&#64;" d="M257 0c-9 0-19 1-28 4-47 12-81 55-81 102l0 55c0 90 0 183 0 274 0 24 12 48 33 62 20 15 46 19 68 11 30-11 52-39 52-66 1-62 1-123 1-184l0-89c0-7-2-13-4-18-10-20-33-31-53-25-22 6-34 22-34 45 0 42 0 85 0 127l0 51c0 3 2 5 5 5 2 0 4-2 4-5l0-51c0-42 0-85 0-127 0-19 10-31 28-36 15-5 34 4 41 20 2 4 3 8 3 14l0 89c0 61 0 122 0 184 0 23-20 48-46 57-19 7-42 4-60-9-18-13-29-33-29-55 1-91 1-184 1-274l0-55c-1-43 30-82 73-93 48-13 96 11 116 58 5 11 8 22 8 34-1 60 0 120 0 180l0 60c0 2 2 4 4 4 3 0 5-2 5-4l0-60c0-60 0-120 0-180 0-13-3-26-8-38-18-42-57-67-99-67z"/>
<glyph glyph-name="drop-tube" unicode="&#91;" d="M314 19l1 0c5 0 12 0 19 2 27 6 47 22 58 49 1 4 0 8-4 9-2 1-3 1-5 0-2-1-3-2-4-4-9-22-25-36-49-41-5-1-10-1-15-1l-1 0c-4 0-7-3-7-7 0-4 3-7 7-7z m94 124c-6 21-56 103-75 124l-2 3c-5 5-8 9-13 9-5 0-8-4-13-8l-3-4c-1-1-2-2-2-3-1 0-2-1-3-3l-1-1c-7-9-23-29-39-54l0 238c0 1 0 2 0 3l14 0c3 0 6 3 6 7l0 51c0 4-3 7-6 7l-168 0c-3 0-7-3-7-7l0-51c0-4 4-7 7-7l14 0c0-1-1-2-1-3l0-384c0-31 25-56 56-56l29 0c19 0 37 10 47 26 7-7 15-13 24-18 13-8 27-12 43-12 8 0 17 1 25 3 21 6 39 17 52 32 13 15 20 31 22 49 3 18 1 37-6 59z m-168-2c2 5 3 9 6 14 3 8 7 16 11 24 18 32 41 61 50 73 2 2 4 4 4 5l4 4c1 1 2 2 3 2 1 0 1-1 2-2l3-3c18-20 66-100 72-119 6-20 8-37 6-53-2-15-9-29-19-42-11-13-27-23-45-27-22-6-41-3-58 7-10 6-18 12-25 20-3 3-6 7-9 11-14 23-16 52-4 86z m-110 92l0 211c0 2 2 3 4 3l106 0c2 0 4-1 4-3l0-211z m0-14l113 0 0-37c-7-13-12-25-16-36-13-42-10-77 12-105-8-14-22-23-38-23l-29 0c-23 0-42 19-42 42z m133 279l0-37-153 0 0 37z"/>
<glyph glyph-name="anthropometry" unicode="&#93;" d="M429 512c0 0-1 0-1 0 0 0-1 0-1 0l-173 0c-5 0-10-4-10-10 0-5 5-9 10-9l166 0 0-36-53 0c-5 0-9-4-9-9 0-5 4-10 9-10l53 0 0-44-41 0c-6 0-10-4-10-10 0-5 4-9 10-9l41 0 0-45-53 0c-5 0-9-4-9-9 0-5 4-10 9-10l53 0 0-44-41 0c-6 0-10-4-10-10 0-5 4-9 10-9l41 0 0-45-53 0c-5 0-9-4-9-9 0-6 4-10 9-10l53 0 0-44-41 0c-6 0-10-5-10-10 0-5 4-9 10-9l41 0 0-45-53 0c-5 0-9-4-9-9 0-6 4-10 9-10l53 0 0-38-110 0c5 6 8 13 8 21l0 129c10 9 15 21 15 35l0 130c0 19-11 36-28 43 18 8 30 25 30 46 0 27-22 49-49 49-28 0-50-22-50-49 0-21 12-38 30-46-16-7-28-24-28-43l0-127c0-13 6-26 15-35l0-132c0-8 3-15 8-21l-94 0 26 26c3 3 3 9 0 12-4 3-9 3-12 0l-24-24 0 429 24-23c1-2 3-3 6-3 2 0 4 1 6 3 3 3 3 9 0 12l-39 38c-3 4-8 4-12 0l-38-38c-3-3-3-9 0-12 3-4 9-4 12 0l24 23 0-428-24 23c-3 4-9 4-12 0-3-3-3-8 0-12l26-26-47 0c-5 0-10-4-10-9 0-6 5-10 10-10l346 0c5 0 10 4 10 10 0 1-1 2-1 3 0 1 1 2 1 3l0 486c0 6-5 10-10 10z m-175-289l0 108c0 17 14 31 31 31 18 0 32-14 32-31l0-127c0-10-5-19-12-25-2-1-4-4-4-6l0-130c0-9-7-16-16-16-8 0-16 7-16 16l0 133c0 3-1 5-3 6-7 6-12 15-12 25l0 16z m-2 200c0 18 15 33 34 33 18 0 33-15 33-33 0-19-15-34-33-34-19 0-34 15-34 34z"/>
<glyph glyph-name="musculoskeletal" unicode="&#94;" d="M512 28c-4 15-6 24-9 32-2 9-5 17-8 33l-1 1c0 0 0 1 0 1 6 7 4 15 3 21-2 6-4 11-6 17-3 8-5 15-7 23-1 10-2 19-3 29 0 5-1 11-1 17-2 10-2 20-3 30-1 6-1 12-2 17l-1 9c-1 12-2 24-3 35-1 4-1 7-1 11 0 6-1 12-2 18 11 15 15 29 10 41-6 11-18 17-26 20-1 3-3 5-6 6-13 4-34 6-48 7-4 0-8 0-10 1-51 7-48 51-48 54l-1 34c0 5-4 9-8 9-5-1-9-4-9-9l1-34c0 0-4-61 63-71 2 0 6 0 11-1 6 0 15-1 23-2-5-4-8-8-10-14-5-15 1-30 16-42 0-1 0-2 0-3 0-1-1-3-1-4 0-11 1-22 3-33 0-4 1-9 1-13 1-9 2-18 3-27l2-24c0-4 0-8 1-13 0-11 1-22 3-34 3-19 2-38-3-54-2-8-1-13 2-17-3-4-4-9-3-14 2-9 5-21 8-32 3-10 6-21 8-28 1-4 4-7 8-7 0 0 1 0 2 0 4 1 7 6 6 10-2 8-5 18-8 29-2 10-5 20-7 29 0 0 1 0 1 0 2 0 4 1 6 2 0 0 0 1 0 1 5 0 10 0 15-1 2 0 4 0 6 1 3-16 6-25 8-34 3-8 5-16 9-31 1-3 4-6 8-6 0 0 1 0 2 0 4 1 7 6 6 10z m-74 305c0 0-1 1-2 1-9 7-13 16-11 24 3 6 9 11 16 11 4 0 18-5 21-13 3-7-2-16-7-24-3 1-6 1-9 1-3 0-5 0-8 0z m43-227c-1-1-1-2-2-3-1 1-1 1-2 1-8 2-16 2-23 1l-2 0c-2 2-2 3-1 6 5 19 7 40 3 62-1 10-2 22-3 33 0 4-1 8-1 13l-2 23c-1 9-2 18-3 27 0 5-1 10-1 15-1 10-3 20-2 30l0 2c3 1 7 0 10 0 0-4 1-9 1-13 0-4 1-8 1-11 1-12 2-24 4-35l0-9c1-6 1-11 2-17 1-10 2-21 3-31 0-5 1-11 1-17 1-9 2-19 4-29 1-10 4-18 7-27 2-5 4-10 5-15 1-2 1-5 1-6z m-77 40c5 3 8 8 8 13 0 3 0 7 0 10 1 13 1 28-11 41 2 4 2 7 2 9 0 5 0 9 0 14 0 2 0 5 0 7 0 10-7 15-10 17-1 0-2 1-3 2-2 1-3 2-5 3 1 5 1 10 0 15 0 3 0 5 0 8 0 12-12 15-17 17-3 1-7 1-10 2l-4 1c-3 0-6-1-8-3-3-3-7-5-14-7-12-3-23-6-34-10-5-1-9-2-13-4-5-1-7-6-6-10 1-5 6-7 10-6 5 2 9 3 14 4 11 4 22 7 33 10 5 1 13 4 19 9l0 0c3-1 6-1 8-2 2-1 4-1 5-2 0-2 0-5 1-8 0-6 0-11-2-16 0 0-1-1-1-1-7-5-13-9-20-13-6-3-10-6-15-9-1-1-3 0-5 0-5 1-9 2-14 3-9 2-19 4-29 4l-1 0c-1 0-2 0-4-1l0 86c0 0 1 0 1 0l35 0c5 0 8 4 8 8 0 5-3 9-8 9l-35 0c0 0 0-1-1-1l0 19c0 0 1 0 1 0l35 0c5 0 8 4 8 8 0 5-3 8-8 8l-35 0c0 0 0 0-1 0l0 18c0 5-3 9-8 9-4 0-8-4-8-9l0-372c0-4 4-8 8-8 5 0 8 4 8 8l0 29c2-1 3-3 5-5 1-1 4-4 2-8-2-4 1-9 5-10 1-1 2-1 3-1 3 0 6 2 7 5 4 9 2 19-5 26-8 8-10 16-4 30l0 2c1 3 3 6 3 7 1 0 6 0 10 0 15 0 31-2 46-3 8-1 17-2 25-3 0 0 2-1 3-1l1-1c8-3 16-3 22 1 6 3 10 10 11 19 1 13-4 23-8 32 0 0 0 0 0 0z m-125 83c1-1 2-1 3-1 9 0 17-2 26-4 5-1 10-2 16-3 1-1 4-1 6-1 3 0 6 1 10 3 4 3 9 6 14 8 7 5 15 9 22 15 1 0 1 1 2 1 0 0 1-1 1-1 2-1 3-2 5-3 1-1 2-2 3-3 0-2 0-5 0-8 0-4 0-8 0-12-1-4-1-5-2-5-7-5-15-9-24-13-5-3-11-6-17-9-3-2-7-2-11-2-11 2-23 4-34 6l-13 3c-3 0-6-1-8-3l0 32z m6-90c13-3 27-5 41-7 5 0 10-1 15-2 2 0 3 0 5 0 4 0 9 1 12 1 5 2 10 3 15 5 5 2 10 4 15 5 1-1 1-2 1-3 4-8 7-15 7-23-1-3-2-6-3-7-2-1-5 0-7 1l-1 0c-3 1-5 3-9 3-8 0-16 1-24 2-16 2-32 4-48 4-16 0-21-2-26-12l0 80c1-1 3-2 5-2l13-3c11-2 23-4 34-6 2 0 4 0 6 0 6 0 11 1 16 4 6 3 11 6 17 8 7 4 14 8 20 12 7-8 7-16 6-29 0-4 0-8 0-11 0 0-1-1-2-1-10 0-18-3-26-6-5-2-9-3-13-4-5-2-8-2-11-1-5 0-10 1-16 2-13 1-26 3-38 6-5 1-9-2-10-6-2-4 1-9 6-10z m113-59c-4 2-9 0-11-4l-4-7c-2-4-5-9-7-14-1-2-2-3-3-4-1 0-2 1-3 2-3 2-6 4-8 6-10 8-20 16-34 19 0 0 0 1-1 2-1 4-5 7-10 6-4-2-7-6-5-10l0-2c0-3 2-10 11-12 11-2 20-9 29-16 3-2 5-4 8-6 5-3 9-7 14-7 1 0 2 0 3 1 6 1 10 6 13 13 3 5 5 10 8 15l4 7c2 4 0 9-4 11z m-173 370l0 35c0 5-3 9-8 9-4 0-8-4-8-8l-1-36c0-2 3-45-49-53-109-16-138-86-143-142-2-18-15-211-16-219 0-4 3-8 8-9 0 0 0 0 0 0 5 0 8 4 9 8 0 2 14 201 15 218 7 73 51 116 130 128 67 9 63 70 63 70z m26-252c-42-2-83 2-87 9-9 17-28 63-29 63-1 5-6 6-10 5-5-2-7-7-5-11 1-1 7-17 15-33-4 0-8-3-9-7l-24-148c-1-5 2-9 7-10 0 0 1 0 1 0 4 0 8 3 8 7l16 97 19-15 2-81c0-4 4-8 8-8l0 0c5 0 9 4 9 9l-3 84c0 2-1 4-3 6l-29 24 5 26c2-6 5-12 7-16 8-15 47-18 77-18 10 0 19 0 26 1 5 0 8 4 8 8 0 5-4 8-9 8z"/>
<glyph glyph-name="lumbosacral" unicode="&#95;" d="M504 512l-496 0c-4 0-8-4-8-8l0-496c0-4 4-8 8-8l496 0c4 0 8 4 8 8l0 496c0 4-4 8-8 8z m-86-438c7-8 9-20 8-25-1-3-2-6-3-9 0-1-1-3-1-4-1-3 0-6 1-8l2-2c2-2 3-4 5-6 0-1 1-2 3-3l-79 0c1 24 14 52 42 60 4 2 9 3 13 3 4 0 7-4 9-6z m2 20c0 0 0 0 0 0-3 2-7 3-10 3-8 0-14-2-19-3-36-11-53-47-54-77l-162 0c-1 27-14 61-47 75-7 3-15 4-23 5-4 0-8-1-11-2-4 2-8 4-11 5-31 10-49 42-42 74 7 29 32 48 60 49 24 0 43-10 56-31 4-6 9-11 13-16 2-2 4-4 5-6 10-11 22-14 33-17 5-1 9-3 13-5 5-2 9-2 12-2 2 0 2 0 4 0 13-1 26-1 38 0 11 0 21 4 31 7 3 1 6 2 9 3 14 4 27 15 38 32 9 15 20 24 33 30 0 1 1 1 2 1 0 1 11 8 32 2 0 0 0 0 1 0 23-2 45-23 50-47 6-29-6-56-32-71-3-1-5-3-6-4-4-3-6-5-13-5z m-338-74c2 2 4 4 5 6l2 2c1 2 2 5 1 7l0 2c-4 11-6 18-2 26l1 2c5 11 8 15 15 15 7-1 12-2 17-4 26-11 36-37 37-59l-79 0c2 1 3 2 3 3z m174 410c4 0 8 1 12 1 6 2 12 3 18 4 1-3 1-5 1-8 0-9 0-19 0-28 0-7 0-15 0-22l-5-1c-5-1-11-2-17-3-13-3-26 1-40 5 0 0 0 0 0 0 0 7 0 15 0 22 0 9 0 18 0 27 0 3 1 5 1 8 0 0 0 0 0 0 10-2 20-5 30-5z m-31-168c0 7 0 15 0 23 10-3 20-5 31-5 4 0 8 0 12 1 6 1 12 2 18 3l1 1c0-8 0-16 0-24-1-11-1-22 0-33-4-1-8-2-12-3-4-2-8-3-11-3-13-1-22 0-31 4-2 1-5 1-8 2 1 11 1 22 0 34z m62 57c0-6 0-11 0-17l-5-1c-5-1-11-3-17-4-13-2-26 2-40 5 0 0 0 0 0 0 0 5 0 9 0 14 0 14 1 29 0 44 10-3 20-5 31-5 4 0 8 0 12 1 6 1 12 2 18 4l1 0c-1-14 0-28 0-41z m-62-140c-1 11 0 21 0 32 1 0 1-1 2-1 10-4 20-5 29-5 3 0 6 0 9 0 6 0 11 2 15 4 3 0 5 1 7 2 0-11 1-21 0-32 0-4 0-9 1-14-5-1-9-2-13-2-12-1-25-1-37 0-1 0-3 0-4 0-2 0-4 0-6 1-1 1-2 1-4 1 1 5 1 10 1 14z m62 302c0-10 0-19-2-29l-3 0c-5-2-11-3-17-4-12-2-25 1-38 5-2 9-2 18-2 28 0 5 0 9 0 14l62 0c0-5 0-9 0-14z m-270 14l191 0c0-4 0-9 0-13 0-12 0-24 3-36 0-1-1-5-1-7-1-4-2-8-2-12 0-9 0-18 0-27 0-11 0-23 0-35 1-16 1-33 0-49 0-18-1-37 0-55 1-14 1-28 0-42 0-13-1-27 0-41 0-2 0-5 0-8-8 3-15 5-20 11-2 2-4 4-6 6-4 5-8 9-11 14-16 26-41 39-70 39-37-1-67-26-76-62-10-41 13-82 53-94 0-1 1-1 2-1-3-4-5-8-6-11l-1-2c-7-12-4-24 0-35-1-1-2-3-4-4-2-3-3-3-5-2-8 4-14 2-18 1-5-2-10-7-13-13l-16 0 0 478z m478-478l-16 0c-4 6-8 11-13 13-4 1-10 3-18-1-3-1-3-1-6 2-1 1-2 3-3 4 1 3 3 7 3 10 2 10-1 24-8 35 4 2 7 4 9 6 1 1 3 2 4 3 33 18 48 53 40 89-7 31-34 56-64 60-25 7-41-2-45-5-16-7-29-19-40-36-8-14-18-22-28-25-2-1-4-1-6-2 0 3 0 5 0 8 1 14 0 28 0 42-1 13-1 27 0 40 1 20 0 40 0 59 0 16-1 32 0 49 0 10 0 20 0 31 0 9 0 18 0 28 0 4-1 8-2 12 0 2-1 5-1 7 3 12 3 24 3 36 0 4 0 9 0 13l191 0 0-478z m-181 114c-22-11-46-15-73-13-14 2-28 6-43 13-5 2-11 4-17 1-5-1-8-5-10-11 0-1-1-2 0-3 0-1 0-1 0-2 7-32 30-71 70-77 6-1 11-1 16-1 25 0 47 11 62 32 8 10 15 23 21 38 4 9 2 17-4 22-9 7-19 2-22 1z m10-17c-5-14-11-25-18-34-15-20-36-28-62-24-31 5-49 35-56 61 1-1 2-1 3-2 17-7 33-12 48-13 30-3 58 2 83 14 2 1 3 1 3 1 0 0 0-1-1-3z"/>
<glyph glyph-name="disabled-eye" unicode="&#96;" d="M23 448l99-91c-69-42-114-100-116-103l-6-7 6-7c4-6 113-144 250-144 37 0 76 10 115 30l86-80 15 18-433 401z m233-274c-41 0-74 33-74 73 0 3 0 6 1 9l48 0 71-66c-13-11-29-16-46-16z m-92 105l-2-9c-2-7-3-15-3-23 0-53 43-97 97-97 23 0 46 9 63 24l33-31c-33-16-65-24-96-24-109 0-203 102-226 128 14 17 55 62 110 94l66-62-42 0z m342-25c-4 6-113 145-250 145-31 0-63-7-96-21l-5-3 19-17 2 1c27 11 54 17 80 17 109 0 203-102 226-129-12-14-47-52-93-83l-5-2 18-17 3 2c60 40 100 91 101 93l6 7z m-182-36l18-17 2 5c6 13 9 27 9 41 0 54-43 98-97 98-4 0-9-1-14-2l-10-1 0-39 23-21 0 39 1 0c41 0 74-33 74-74 0-9-2-18-5-26z"/>
<glyph glyph-name="stress-test" unicode="&#123;" d="M253 380c0 0 1 0 1 0 31 0 56 24 56 55 0 32-24 57-55 57-15 1-30-5-41-16-11-11-17-25-17-40 0-31 25-56 56-56z m-28 85c8 7 18 12 29 12 0 0 1 0 1 0 22-1 40-19 39-42 0-22-18-40-40-40l0 0c-22 1-41 19-41 41 0 11 5 21 12 29z m285-109c-3 3-8 3-11 0l-67-61c-4-3-4-8-1-11 2-2 4-3 6-3 2 0 4 1 5 2l23 21-13-48c-1 0-3-1-4-2-13-9-37-24-48-24-15 0-84 52-144 103 1 7 1 15 2 22 0 8-5 15-12 17l-46 16c-2 0-4 0-6 0-3-2-73-28-100-40-13-6-20-20-17-35 1-7 2-18 4-30 2-13 3-28 6-37 1-3 4-6 7-6l28 0c3 0 5 1 6 3 2 1 3 4 2 6 0 5 1 17 1 27 1 10 2 19 2 26l23 3c-10-33-41-119-53-136-7 4-16 8-25 13-15 8-30 16-40 20-4 2-8 1-10-2l-26-36c-2-1-2-3-2-6 0-2 2-4 4-5 13-9 33-19 52-28 18-9 36-18 48-26 11-7 22-9 32-6 10 3 18 10 25 22 2 5 8 15 14 26 6 9 11 19 16 27 15-15 46-43 62-57l41-76-242 0c-4 0-8-3-8-7 0-5 4-8 8-8l348 0c4 0 7 2 8 6l79 297 22 21c4 3 4 8 1 12z m-263-107c2 5 4 20 6 40l31-57-8-9-30 22c0 2 1 3 1 4z m17-127c-24 22-65 60-69 64-1 2-4 3-7 3-2 0-5-2-6-4-4-8-13-23-20-36-7-11-13-21-15-26-5-8-9-13-15-15-6-1-12 0-20 5-12 8-30 16-48 26-16 8-32 16-44 23l17 23c9-5 22-11 34-17 11-6 21-11 29-15 3-2 6-1 9 1 21 12 66 159 66 161 0 2-1 4-2 6-2 1-5 2-7 1l-42-6c-5-1-7-4-7-9 1-5 0-18-1-29-1-8-1-16-2-22l-13 0c-2 8-3 19-4 29-2 12-3 24-5 31-1 7 3 14 9 17 23 11 83 34 97 39l43-15c1 0 1-1 1-1-3-55-7-95-10-102-13-36 10-58 43-90l4-4c18-16 32-38 44-66 2-4 14-33 21-50l-36 0-42 76c0 0-1 1-1 2z m130-86l-30 0c0 1 0 2-1 4 0 0-23 55-26 61-13 30-28 53-47 71l-4 3c-23 23-37 37-41 51l27-20c1-1 3-1 5-1 2 0 4 1 5 2l18 18c3 2 3 6 1 9l-41 75c36-31 116-95 140-95 14 0 34 11 47 20l-53-198z"/>
<glyph glyph-name="spirometry" unicode="&#124;" d="M507 193l0 46c0 0 0 3 0 3 0 7 0 15-3 22-1 2-2 3-4 4-10 6-113 3-117 1-2 0-10-2-16-3-32-5-59-10-68-20-8-7-13-14-17-22-1-3-1-6 2-9 0 0 0 0 0-1 6-13 15-22 25-32l1 0c-3-9-3-21-3-32 0-2 0-3 0-4 0-4-4-8-8-8-2 0-18 0-34 0-29 0-29 0-30 0-18-1-23-5-24-24 0-20 0-58 0-74 0-4 0-7 0-8 0-4-4-8-8-8-1 0-17 0-114 0l-4 0c-4 0-8 4-9 8-2 37-1 140-1 144 0 1-1 3-1 4 9 8 14 17 18 26 2 4 4 7 5 10 3 4 2 8 2 10l0 1c0 23 0 46 0 68 0 8 5 16 12 20 7 5 15 5 22 2 4-2 7-3 11-5 0 0 0 0 0 0 4-9 3-19 3-30 0-6 0-12 0-19 0-1 0-1 0-2l0-2c0-5 4-8 8-8 5 0 9 3 9 8l0 1c0 2 0 3 0 4 0 6 0 11 0 17 0 12 1 23-3 35 6 7 8 15 10 22l1 3c7 23 22 37 46 44 10 3 20 3 30 3l4 0c8-1 15 2 21 7l4 4c7 7 13 13 21 18 3-4 5-9 7-11 5-10 8-21 11-36 2-12 6-23 10-35 3-7 5-14 7-22 1-4 6-7 11-6 4 1 7 6 6 11-3 8-5 15-8 23-4 11-7 21-9 32-2 11-5 26-13 41-8 14-37 56-70 75-32 18-67 24-103 19-40-6-73-24-100-54-27-30-41-65-42-105 0-23 0-46 0-69 0-11 0-23 0-34 0-7 2-12 6-17 3-3 5-6 8-10 4-5 8-10 13-15 2-2 4-5 5-7 5-6 10-13 18-17 3-1 3-2 3-4 0-3 0-107 2-145 0-13 12-24 25-24l5 0c33 0 59 0 78 0 22 0 34 0 35 0 14 0 25 11 25 25 0 0 0 3 0 8 0 16 0 54 1 74 0 1 0 5 0 6 2 1 5 1 7 1 2 0 15 0 29 0 16 0 33 0 34 0 13 1 24 11 25 24 0 1 0 3 0 5 0 5 0 18 1 26 10 0 20 0 31 0 7 0 14 0 20 0 1 0 1 0 2 1 8-10 20-18 20-18 0 0 1 0 1 0 2-26 11-135 12-149 1-4 4-8 9-8l75 0c5 0 9 4 9 8 0 1 3 108 3 139 0 4 0 23 0 44z m-456 14c-2 3-5 6-7 9-4 4-8 9-12 14-2 3-5 7-8 10-2 2-2 3-2 6 0 11 0 23 0 34 0 23 0 46 0 69 1 35 14 66 38 94 24 27 54 43 89 48 33 5 64-1 93-17 18-10 34-27 46-43-9-6-16-13-23-19l-4-4c-3-3-5-4-9-4l-3 0c-12 1-24 1-36-2-29-9-48-28-57-56l-1-3c-2-6-3-10-6-14-3 1-6 2-8 3-12 6-27 5-39-2-12-8-20-21-20-35 1-22 0-45 0-67 0-1 0-2 0-3 0 0 0-1 1-1-2-3-4-6-6-10-3-7-7-14-13-20 0 0 0 1 0 1-5 2-9 7-13 12z m272-15c0 0 0 1-1 1l-1 2c-9 8-17 16-21 26 2 4 6 8 11 13 6 7 42 13 58 15 4-13 4-50 2-55 0-1 0-1 0-1-5 0-10 0-14 0-11 0-23 1-34 0z m65-1c3 12 2 44-2 61 1 1 2 1 2 1 10 2 83 2 102 0 0-3 0-7 0-11l0-3c0 0 0-47 0-47 0-4 0-8 0-13l-14 0c-14 0-29 0-44 0-10 1-17-1-24-5-1 0-1 0-1 0 0 0 0 0-1 0-3 2-14 12-18 17z m102-42c0-25-2-104-3-130l-59 0c-5 52-10 123-12 140 4 3 9 4 16 4 15-1 30-1 44 0l14 0c0-7 0-12 0-14z"/>
<glyph glyph-name="question-circle" unicode="&#125;" d="M256 512c-141 0-256-115-256-256 0-141 115-256 256-256 141 0 256 115 256 256 0 141-115 256-256 256z m0-486c-127 0-230 103-230 230 0 127 103 230 230 230 127 0 230-103 230-230 0-127-103-230-230-230z m-11 128l0 1 0 0c-4 4-9 6-15 6-6 0-11-2-15-6-4-4-6-9-6-15 1-11 10-21 21-21 6 0 11 2 15 6 8 8 8 21 1 29z m58 209l-2-2 2 2c-23 16-51 24-79 23-8 0-17-1-25-1l-6-1 3-28 5 0 1 0c8 1 15 1 21 1 20 1 40-4 57-14 14-9 22-25 22-41 0-17-8-33-22-43-18-11-38-16-59-15l-11 0 0-62 24 0 2 37 2 0c25 1 50 11 69 27 17 14 26 36 25 57 1 24-10 46-29 60z"/>
<glyph glyph-name="tooth" unicode="&#126;" d="M485 407c-9 29-24 52-45 71-29 25-62 36-99 31-28-4-53-15-76-35-13 1-24 5-34 12-24 16-49 25-78 24-30 0-57-11-80-32-28-24-45-57-52-98-6-35 0-71 18-106 18-35 39-77 58-120 4-11 9-21 13-32 10-23 20-46 31-69 6-13 16-29 30-41 10-8 21-11 33-9 14 2 23 8 27 20 4 8 6 17 7 26 1 15 1 31 1 46 0 9 0 20 1 30l0 7c0 12 1 24 4 35 2 7 4 10 8 12 8 3 12-2 14-7 3-7 4-15 5-23 2-17 2-34 2-51 0-9 0-17 0-26 0-10 1-25 5-39 3-14 12-25 25-29 4-1 8-2 12-2 9 0 18 3 25 9 14 11 22 25 30 39 12 22 22 46 31 69 3 5 5 11 8 17 17 41 37 83 60 128 8 18 19 42 23 69 3 23 1 47-7 74z m-10-72c-4-25-13-47-22-63-23-46-43-88-60-129-3-6-5-12-8-18-9-22-19-45-30-67-7-12-14-25-25-34-7-5-15-6-22-4-7 3-12 8-14 17-3 12-3 26-4 36 0 8 0 16 0 25 0 17 0 35-2 52-1 10-2 20-6 29-5 12-15 18-25 18-4 0-8-1-12-2-12-5-15-16-17-23-4-13-5-27-5-39l0-8c-1-10-1-20-1-30 0-15 0-30-1-44-1-8-3-15-5-22-3-6-7-9-14-10-8-1-14 1-20 6-12 10-19 23-25 35-11 22-21 46-31 68-4 11-9 22-13 32-20 44-41 86-59 122-16 31-21 63-16 94 7 38 22 67 47 89 19 18 43 27 68 28 25 0 48-7 68-21 13-9 27-14 43-15 8-10 20-11 29-11l2 0c5-1 10-1 16-1 15 0 32 2 49 7 4 1 7 6 5 11-1 4-6 7-11 5-20-6-40-6-58-5l-2 0c-5 0-9 1-12 2 19 15 39 23 62 26 32 5 60-4 85-27 19-15 32-37 40-62 7-24 9-46 6-67z m-326 140c-37-7-64-28-81-64-8-17-12-33-13-49 0-5 3-9 8-9 0 0 0 0 0 0 5 0 9 3 9 8 1 14 4 28 12 43 14 31 37 48 68 54 5 1 8 5 7 10-1 4-5 7-10 7z m301-113c-4 1-9-2-10-7-3-18-10-35-18-51-1-3-3-5-4-8-2-3-4-6-6-10-2-4 0-9 4-11 1 0 2-1 3-1 4 0 7 2 8 5 1 3 3 5 5 8 2 3 4 6 5 9 9 17 17 36 20 57 1 4-2 9-7 9z"/>
<glyph glyph-name="ophtalmology" unicode="&#92;" d="M488 241c3 4 5 8 8 11l0 2c1 1 2 3 2 4 0 1 0 2-1 3-3 10-9 17-15 23l-1 1c-36 38-71 67-109 88-39 21-77 31-115 30-36-2-71-14-109-36-38-23-101-85-103-87l0-1c-14-19-16-24 1-43 55-61 109-97 169-114 16-5 33-7 49-7 22 0 44 4 65 11 42 15 81 40 122 77 13 12 26 24 37 38z m-164-100c-36-12-71-14-105-4-57 16-108 51-161 110-3 3-8 9-8 11 0 1 3 7 7 12l0 0c4 4 65 63 100 83 35 21 68 32 101 34 2 0 5 0 7 0 33 0 65-9 99-28 37-20 71-48 105-85l2-1c4-5 8-9 10-14-2-3-3-6-5-8-11-13-23-24-36-36-39-36-76-60-116-74z m-61 194c-1 0-2 0-3 0l0 0c-1 0-1 0-2 0-35-5-58-25-67-58-6-24 0-48 16-66 15-18 37-28 59-28 2 0 5 0 7 0 24 3 48 20 60 43 11 22 10 48-3 70-14 26-38 39-68 39z m56-102c-10-19-28-32-48-34-19-2-39 6-52 22-13 14-17 33-12 52 6 26 24 42 53 46 0 0 0 0 0 0 26 1 45-10 57-31 10-18 11-37 2-55z m-184-195l-118 0 0 114c0 4-4 8-8 8-4 0-8-4-8-8l0-122c0-4 4-8 8-8l126 0c4 0 8 4 8 8 0 4-4 8-8 8z m368 122c-4 0-8-4-8-8l0-114-110 0c-5 0-8-4-8-8 0-4 3-8 8-8l118 0c4 0 8 4 8 8l0 122c0 4-4 8-8 8z m0 330l-126 0c-4 0-8-4-8-8 0-4 4-8 8-8l118 0 0-114c0-4 4-8 8-8 4 0 8 4 8 8l0 122c0 4-4 8-8 8z m-494-138c4 0 8 4 8 8l0 114 110 0c5 0 8 4 8 8 0 4-3 8-8 8l-118 0c-4 0-8-4-8-8l0-122c0-4 4-8 8-8z"/>
<glyph glyph-name="rx-lungs" unicode="&#57344;" d="M503 512l-494 0c-5 0-9-4-9-9l0-494c0-5 4-9 9-9l494 0c5 0 9 4 9 9l0 494c0 5-4 9-9 9z m-8-172c-4 1-7 2-9 5-16 14-35 24-62 34-9 3-18 6-27 9-7 1-13 3-19 5-23 8-38 23-44 48-4 16-6 34-7 54l168 0 0-155z m-314 155c0-19-2-37-6-54-7-26-23-42-51-51l-10-3c-16-4-32-9-47-15-16-7-30-16-42-26-3-2-6-4-8-5l0 154 165 0z m-164-478l0 306c7 2 12 5 19 10 11 9 23 17 37 23 15 6 30 11 45 15l11 3c34 10 54 31 62 63 5 18 7 37 7 58l112 0c0-21 3-40 8-58 8-31 26-51 55-60 6-2 12-4 19-6 9-3 18-5 27-8 24-9 41-18 55-31 5-4 11-7 18-9 1 0 1 0 2 0 0 0 1 0 1 0l0-306-478 0z m400 249c-15 25-31 42-49 55-6 3-11 6-18 8-29 11-46 4-59-24-3-6-5-13-7-19-2-6-4-11-6-16-3 2-4 5-4 10 1 11 1 22 1 33 0 5-1 10-1 14 0 5-3 9-8 9-5 0-9-4-9-9 0-4 0-9 1-14 0-11 0-22-1-32-1-14 5-23 17-28 0-1 0-3 1-4-5-7-5-16-5-23l0-2c-1-23-1-46-1-69 0-11 0-21 0-32 0-28 12-64 67-73 15-2 30-3 45-3 4 0 8 0 13 0 6 0 12 0 18 0 0 0 0 0 1 0 25 0 52 17 53 55 0 22-3 44-9 69-10 36-23 67-40 94z m-4-202l-1 0c-6 0-12 0-19 0-19 0-36 0-55 3-35 6-52 24-52 56 0 11 0 21 0 32 0 23 0 46 1 69l0 2c0 4 0 7 1 10 5-5 9-11 14-18 2-2 3-3 5-4 1-4 2-7 3-9l4-9c5-14 12-29 17-43 1-5-6-25-9-28-2-1-4-1-7-2-2 0-4 0-6-1-4-1-7-5-6-10 0-4 4-6 8-6 1 0 1 0 2 0 1 0 2 0 4 0 4 1 8 2 13 4 6 3 12 15 15 26 1 0 1-1 2-1 3-3 5-6 9-9 1-2 3-3 5-5 4-5 9-11 19-13 0 0 1 0 1 0 4 0 8 3 9 7 0 4-3 9-7 10-4 0-6 3-10 7-2 2-4 5-7 7-2 2-4 4-7 7-3 4-7 8-12 11 0 1 0 2 0 2-6 15-12 30-18 44l-4 9c0 0 0 1 0 1 12 3 23 3 34 1 2-1 4-2 6-4 4-2 9-6 16-6 4 0 8 4 9 8 0 5-4 9-9 9-2 0-3 1-7 3-3 2-6 5-11 6-14 4-30 3-46-1-1 0-1-1-1-1-7 10-15 20-25 27 0 1-1 2-1 2 4 8 7 16 10 24 2 6 4 12 6 17 10 20 17 23 38 16 6-2 10-4 14-7 17-11 31-27 45-50 16-26 28-56 37-90 6-23 9-44 9-65 0-26-18-37-36-37z m-175 249c0 5 0 10 0 15 0 4-3 8-8 8-5 0-9-4-9-8 0-5 0-10 0-15 0-11 0-22 1-33 0-5-1-7-4-9-1 3-2 7-4 11-2 7-4 14-8 21-2 5-5 10-8 15-13 20-34 16-41 15-24-5-41-21-54-34-28-32-49-72-64-127-7-28-10-53-8-76 3-28 21-47 47-48l8 0c10-1 20-1 31-1 18 0 36 1 55 6 24 6 40 18 49 37 5 11 5 22 5 32 1 38 1 72 0 103 0 7 0 16-5 24 1 1 1 3 1 4 12 5 18 14 17 28-1 10-1 21-1 32z m-29-191c0-8 0-17-4-25-7-14-19-23-37-28-27-7-55-6-82-5l-7 1c-18 0-29 13-31 33-2 21 1 43 8 70 14 52 33 90 60 119 11 12 25 25 44 29 4 1 6 1 9 1 8 0 11-3 15-8 2-5 5-9 7-14 3-5 5-11 7-18 2-7 4-13 8-20-1-1-1-1-1-2-10-7-18-17-25-27 0 0-1 0-1 0-16 5-31 6-47 2-4-2-8-4-11-6-3-2-5-3-7-3-5 0-8-4-8-9 0-5 4-9 9-8 7 0 12 3 16 6 2 1 4 3 6 3 10 3 21 3 33 0l-1-3c-5-12-9-23-13-35-1-1-1-1-2-2-1-2-1-3-2-4-2-4-3-8-3-12-7-5-13-11-18-17-4-5-9-9-14-13 0-1-1-2-2-2 0 0 0 0 0-1-4 1-8-2-9-6-1-5 2-9 6-10 2-1 3-1 4-1 5 0 9 3 11 5 0 0 0 1 1 1 6 5 11 11 16 16 2 3 4 5 7 8 1-5 3-9 5-13 1-2 1-4 2-6 4-11 16-12 23-12l3-1c0 0 0 0 1 0 4 0 8 4 8 8 1 5-3 9-7 9l-3 1c-3 0-8 0-9 1-1 2-2 4-2 6-5 11-9 21-5 31 1 1 1 2 2 3 1 1 2 3 3 5 4 12 8 23 13 35l3 9c2 1 4 3 6 5 5 7 9 13 14 18 1-3 1-7 1-11 0-32 0-65 0-103z"/>
</font>
</defs>
</svg>
